<?xml version="1.0" standalone="no"?>
<!DOCTYPE svg PUBLIC "-//W3C//DTD SVG 1.1//EN" "http://www.w3.org/Graphics/SVG/1.1/DTD/svg11.dtd" >
<svg xmlns="http://www.w3.org/2000/svg" xmlns:xlink="http://www.w3.org/1999/xlink" version="1.1">
<metadata>
Created by FontForge 20190801 at Fri Dec 20 15:00:10 2013
 By Unknown
Copyright (c) 2011 by Case Studio, Inc. Licensed exclusively to P22/IHOF. All rights reserved.
</metadata>
<defs>
<font id="P22MackinacPro-Book" horiz-adv-x="630" >
  <font-face 
    font-family="P22 Mackinac Pro"
    font-weight="350"
    font-stretch="normal"
    units-per-em="1000"
    panose-1="2 0 0 0 0 0 0 0 0 0"
    ascent="795"
    descent="-205"
    x-height="522"
    cap-height="714"
    bbox="-103 -240 1123 916"
    underline-thickness="20"
    underline-position="-120"
    unicode-range="U+0020-FB07"
  />
<missing-glyph horiz-adv-x="584" 
d="M133 19h317l-159 271zM133 599l158 -272l159 272h-317zM480 617v-617h-377v617h377zM461 581l-158 -272l158 -271v543zM122 38l159 271l-159 272v-543z" />
    <glyph glyph-name="Tcaron_h" unicode="&#x164;h" horiz-adv-x="1057" 
d="M1004 35c11 -5 16 -11 16 -19c0 -11 -8 -16 -24 -16h-147c-15 0 -23 5 -23 16c0 8 5 14 15 19c14 7 24 14 29 23c10 15 15 51 15 106v172c0 42 -10 75 -30 98c-19 23 -47 35 -84 35s-67 -12 -90 -36c-19 -19 -33 -48 -40 -85s-10 -99 -10 -184c0 -53 5 -88 16 -106
c5 -9 15 -17 29 -23c10 -5 15 -11 15 -19c0 -11 -8 -16 -23 -16h-148c-15 0 -23 5 -23 16c0 8 4 14 13 18c15 7 26 15 31 24c10 15 15 51 15 106v448c0 26 -4 42 -12 49c-7 7 -26 10 -55 10h-147c-6 0 -9 -3 -9 -8v-499c0 -53 5 -89 15 -106c5 -9 16 -17 32 -25
c9 -5 13 -10 13 -16c0 -11 -8 -17 -24 -17h-148c-15 0 -23 5 -23 16c0 7 5 13 14 18c15 8 25 16 30 24c10 15 15 50 15 106v499c0 5 -3 8 -8 8h-14c-63 0 -91 -3 -120 -23c-12 -8 -20 -16 -28 -29l-8 -15l-17 -42c-7 -16 -15 -24 -26 -24c-14 0 -21 10 -21 31
c1 57 3 99 5 126c2 18 14 27 35 27c3 0 21 -1 56 -4s71 -4 109 -4h152c84 0 144 5 180 14c24 7 49 19 61 19s18 -8 18 -23v-282c0 -2 1 -3 2 -3s2 1 3 3c39 61 94 91 163 91c56 0 99 -20 129 -61c21 -29 32 -73 32 -134v-174c0 -57 5 -92 15 -106c7 -10 16 -18 29 -23z
M387 913h36c3 0 5 -1 5 -3c0 -1 -1 -3 -3 -6l-89 -110c-4 -5 -9 -7 -16 -7h-49c-7 0 -13 2 -17 7l-89 110c-2 2 -3 4 -3 5c0 3 2 4 5 4h38c4 0 8 -2 13 -7l74 -78c3 -3 5 -3 9 1l73 78c4 4 8 6 13 6z" />
    <glyph glyph-name="Tcommaaccent_h" unicode="&#x162;h" horiz-adv-x="1057" 
d="M1004 35c11 -5 16 -11 16 -19c0 -11 -8 -16 -24 -16h-147c-15 0 -23 5 -23 16c0 8 5 14 15 19c14 7 24 14 29 23c10 15 15 51 15 106v172c0 42 -10 75 -30 98c-19 23 -47 35 -84 35s-67 -12 -90 -36c-19 -19 -33 -48 -40 -85s-10 -99 -10 -184c0 -53 5 -88 16 -106
c5 -9 15 -17 29 -23c10 -5 15 -11 15 -19c0 -11 -8 -16 -23 -16h-148c-15 0 -23 5 -23 16c0 8 4 14 13 18c15 7 26 15 31 24c10 15 15 51 15 106v448c0 26 -4 42 -12 49c-7 7 -26 10 -55 10h-147c-6 0 -9 -3 -9 -8v-499c0 -53 5 -89 15 -106c5 -9 16 -17 32 -25
c9 -5 13 -10 13 -16c0 -11 -8 -17 -24 -17h-148c-15 0 -23 5 -23 16c0 7 5 13 14 18c15 8 25 16 30 24c10 15 15 50 15 106v499c0 5 -3 8 -8 8h-14c-63 0 -91 -3 -120 -23c-12 -8 -20 -16 -28 -29l-8 -15l-17 -42c-7 -16 -15 -24 -26 -24c-14 0 -21 10 -21 31
c1 57 3 99 5 126c2 18 14 27 35 27c3 0 21 -1 56 -4s71 -4 109 -4h152c84 0 144 5 180 14c24 7 49 19 61 19s18 -8 18 -23v-282c0 -2 1 -3 2 -3s2 1 3 3c39 61 94 91 163 91c56 0 99 -20 129 -61c21 -29 32 -73 32 -134v-174c0 -57 5 -92 15 -106c7 -10 16 -18 29 -23z
M324 -32c17 -18 26 -41 26 -68c0 -31 -10 -61 -31 -91c-23 -33 -43 -49 -61 -49c-4 0 -8 2 -11 5c-5 5 -8 9 7 21c12 9 22 21 31 34c7 13 11 24 11 35c0 16 -7 24 -31 47c-16 13 -24 26 -24 37c0 8 6 18 19 31c13 12 23 18 30 18c11 0 22 -7 34 -20z" />
    <glyph glyph-name="f_f_j" unicode="ffj" horiz-adv-x="916" 
d="M744 732c17 -15 25 -37 25 -67c0 -21 -8 -31 -24 -31c-23 0 -52 65 -118 65c-22 0 -42 -6 -60 -19c-39 -28 -59 -83 -60 -165c0 -7 3 -10 10 -10c21 0 38 0 52 1c17 0 51 5 63 5c15 0 23 -5 23 -16l-3 -15c-5 -20 -16 -30 -33 -30c-9 0 -38 4 -57 5c-13 1 -28 1 -43 1
c-8 0 -12 -4 -12 -11v-160c1 -73 1 -113 1 -121c0 -53 5 -89 15 -106c4 -7 14 -14 29 -23c10 -5 15 -11 15 -18c0 -11 -8 -17 -23 -17h-148c-15 0 -23 5 -23 16c0 9 5 15 15 19c14 6 24 14 29 23c10 15 15 51 15 106c0 13 0 57 -1 130v152c0 7 -3 10 -10 10h-219
c-7 -1 -10 -4 -10 -11v-160c1 -73 1 -113 1 -121c0 -54 5 -89 15 -106c5 -8 14 -16 29 -23c10 -5 15 -11 15 -19c0 -11 -8 -16 -23 -16h-148c-15 0 -23 5 -23 16c0 8 5 14 15 19c15 9 25 16 29 23c10 15 15 51 15 106c0 13 0 56 -1 129v153c0 7 -3 10 -9 10h-61
c-7 0 -11 3 -11 9v29c0 7 4 11 11 11h62c7 0 10 3 10 9c4 55 15 99 32 131c32 60 103 103 172 103c26 0 46 -6 59 -17c17 -14 25 -36 25 -66c0 -21 -8 -31 -24 -31c-17 -5 -37 26 -50 39c-17 15 -35 23 -54 23c-56 0 -85 -61 -86 -182c0 -6 4 -9 11 -9h219c7 0 11 3 11 9
c4 54 18 99 43 134c47 67 113 100 199 100c33 0 56 -5 69 -16zM821 509v-231c1 -104 1 -171 1 -201c0 -81 -16 -145 -49 -190c-39 -52 -92 -78 -157 -78c-60 0 -84 25 -84 82c0 21 8 31 23 31c9 0 18 -5 27 -15c28 -31 54 -47 79 -47c29 0 50 15 65 45c13 26 20 79 20 159
l-1 316c0 36 -4 59 -11 68c-5 7 -16 12 -31 16s-22 10 -22 18c0 11 3 16 26 21c31 7 57 16 79 25c8 3 14 5 17 5c12 0 18 -8 18 -24z" />
    <glyph glyph-name="f_j" unicode="fj" horiz-adv-x="601" 
d="M429 732c17 -13 25 -36 25 -67c0 -21 -8 -31 -23 -31c-24 0 -52 65 -120 65c-26 0 -48 -8 -65 -23c-35 -29 -53 -83 -54 -161c0 -7 3 -10 10 -10c21 0 39 0 52 1c19 1 54 5 63 5c15 0 23 -5 23 -16c0 -2 -1 -7 -3 -15c-5 -20 -16 -30 -32 -30c-9 0 -39 4 -58 5
c-13 1 -28 1 -43 1c-8 0 -12 -4 -12 -11v-160c1 -73 1 -113 1 -121c0 -53 5 -89 15 -106c4 -7 14 -14 29 -23c10 -5 15 -11 15 -18c0 -11 -8 -17 -23 -17h-148c-15 0 -23 6 -23 17c0 7 5 13 15 18c14 7 24 14 29 23c10 15 15 51 15 106c0 13 0 57 -1 130v152
c0 7 -3 10 -10 10h-60c-7 0 -11 3 -11 9v30c0 7 4 10 11 10h62c6 0 9 3 10 10c4 54 18 98 43 133c48 67 115 100 200 100c33 0 55 -5 68 -16zM506 509v-231c1 -104 1 -171 1 -201c0 -81 -16 -145 -49 -190c-39 -52 -91 -78 -157 -78c-60 0 -84 25 -84 82c0 21 8 31 23 31
c9 0 18 -5 27 -15c28 -31 54 -47 79 -47c28 0 50 15 65 45c13 26 20 79 20 159l-1 316c0 36 -4 59 -11 68c-5 7 -16 12 -31 16s-22 10 -22 18c0 11 3 16 26 21c31 7 57 16 79 25c8 3 14 5 17 5c12 0 18 -8 18 -24z" />
    <glyph glyph-name="ff" unicode="ff" horiz-adv-x="710" 
d="M713 732c16 -13 24 -34 24 -62c0 -23 -8 -35 -24 -35c-16 -4 -35 26 -51 40c-17 14 -34 21 -52 21c-56 0 -85 -60 -86 -181c0 -7 3 -10 10 -10c29 0 50 0 63 1c8 0 21 1 39 2c19 2 32 3 39 3c19 0 28 -5 28 -16c0 -1 -1 -7 -3 -17c-5 -21 -10 -28 -38 -28
c-7 0 -18 1 -35 2c-16 1 -28 2 -36 2c-18 1 -36 1 -55 1c-8 0 -12 -4 -12 -11v-159c1 -72 1 -112 1 -121c0 -54 5 -89 15 -106c5 -8 14 -16 29 -23c10 -5 15 -11 15 -19c0 -11 -8 -16 -23 -16h-149c-15 0 -23 5 -23 16c0 8 5 14 15 19c15 7 24 15 29 23c10 17 15 52 15 106
c0 13 0 56 -1 129v152c0 7 -3 10 -10 10h-234c-7 0 -10 -4 -10 -11v-280c0 -53 5 -88 16 -106c4 -7 14 -14 29 -23c10 -5 15 -12 15 -19c0 -11 -8 -16 -23 -16h-148c-16 0 -24 5 -24 16c0 7 5 14 16 19c15 7 24 15 29 23c10 17 15 52 15 106c0 13 0 56 -1 129v152
c0 7 -3 10 -10 10h-61c-7 0 -11 3 -11 9v31c0 7 4 10 11 10h62c7 0 10 3 10 10c4 55 15 99 32 131c32 60 104 103 173 103c26 0 46 -6 59 -17c16 -13 24 -34 24 -62c0 -23 -8 -35 -23 -35c-17 -4 -35 27 -52 41c-15 13 -33 20 -52 20c-57 0 -86 -60 -86 -181
c0 -7 3 -10 10 -10h235c7 0 10 3 11 10c3 54 14 98 31 131c33 63 103 103 174 103c26 0 46 -6 59 -17z" />
    <glyph glyph-name="fi" unicode="fi" horiz-adv-x="610" 
d="M429 732c17 -13 25 -36 25 -67c0 -21 -8 -31 -23 -31c-24 0 -52 65 -120 65c-26 0 -48 -8 -65 -23c-35 -29 -53 -83 -54 -161c0 -7 3 -10 10 -10c21 0 39 0 52 1c19 1 54 5 63 5c15 0 23 -5 23 -16c0 -2 -1 -7 -3 -15c-5 -20 -16 -30 -32 -30c-9 0 -39 4 -58 5
c-13 1 -28 1 -43 1c-8 0 -12 -4 -12 -11v-160c1 -73 1 -113 1 -121c0 -53 5 -89 15 -106c4 -7 14 -14 29 -23c10 -5 15 -11 15 -18c0 -11 -8 -17 -23 -17h-148c-15 0 -23 6 -23 17c0 7 5 13 15 18c14 7 24 14 29 23c10 15 15 51 15 106c0 13 0 57 -1 130v152
c0 7 -3 10 -10 10h-60c-7 0 -11 3 -11 9v30c0 7 4 10 11 10h62c6 0 9 3 10 10c4 54 18 98 43 133c48 67 115 100 200 100c33 0 55 -5 68 -16zM551 34c10 -6 15 -12 15 -17c0 -11 -8 -17 -23 -17h-149c-15 0 -23 6 -23 17c0 6 5 12 15 17c15 8 24 16 29 24
c10 15 15 51 15 107v228c0 29 -3 47 -10 55c-6 7 -16 13 -31 16c-15 4 -23 10 -23 18c0 11 4 16 27 21c29 7 55 15 79 25c8 3 14 5 17 5c12 0 18 -8 18 -24v-344c0 -56 5 -92 15 -107c5 -9 15 -17 29 -24z" />
    <glyph glyph-name="fl" unicode="fl" horiz-adv-x="619" 
d="M560 34c10 -5 15 -11 15 -18c0 -11 -8 -16 -24 -16h-145c-15 0 -23 5 -23 16c0 7 5 13 15 18c15 8 24 16 29 24c10 15 15 51 15 106v461c0 11 -3 21 -10 30c-25 31 -58 47 -99 47c-81 0 -139 -75 -139 -188c0 -6 3 -9 9 -9c27 0 46 0 58 1c3 0 12 1 25 2s23 2 30 2
c17 0 25 -5 25 -16c0 -1 -1 -6 -3 -14c-7 -23 -13 -30 -36 -30c-12 0 -41 4 -49 4c-48 3 -60 6 -60 -10v-280c0 -55 5 -91 15 -106c4 -6 14 -14 30 -23c10 -5 15 -12 15 -19c0 -11 -8 -16 -23 -16h-148c-15 0 -23 5 -23 16c0 8 5 14 15 19c15 9 25 16 29 23
c10 17 15 52 15 106c0 13 0 56 -1 129v153c0 7 -3 10 -10 10h-61c-7 0 -11 3 -11 8v31c0 7 4 10 11 10h65c7 0 11 3 11 9c2 46 16 89 43 128c44 64 115 104 194 104c26 0 50 -4 72 -11c6 -2 11 -3 15 -3c12 0 42 15 51 15c12 0 18 -7 18 -22v-561c0 -55 5 -91 15 -106
c6 -9 16 -17 30 -24z" />
    <glyph glyph-name="ffi" unicode="ffi" horiz-adv-x="925" 
d="M744 732c17 -15 25 -37 25 -67c0 -21 -8 -31 -24 -31c-23 0 -52 65 -118 65c-22 0 -42 -6 -60 -19c-39 -28 -59 -83 -60 -165c0 -7 3 -10 10 -10c21 0 38 0 52 1c17 0 51 5 63 5c15 0 23 -5 23 -16l-3 -15c-5 -20 -16 -30 -33 -30c-9 0 -38 4 -57 5c-13 1 -28 1 -43 1
c-8 0 -12 -4 -12 -11v-160c1 -73 1 -113 1 -121c0 -53 5 -89 15 -106c4 -7 14 -14 29 -23c10 -5 15 -11 15 -18c0 -11 -8 -17 -23 -17h-148c-15 0 -23 5 -23 16c0 9 5 15 15 19c14 6 24 14 29 23c10 15 15 51 15 106c0 13 0 57 -1 130v152c0 7 -3 10 -10 10h-219
c-7 -1 -10 -4 -10 -11v-160c1 -73 1 -113 1 -121c0 -54 5 -89 15 -106c5 -8 14 -16 29 -23c10 -5 15 -11 15 -19c0 -11 -8 -16 -23 -16h-148c-15 0 -23 5 -23 16c0 8 5 14 15 19c15 9 25 16 29 23c10 15 15 51 15 106c0 13 0 56 -1 129v153c0 7 -3 10 -9 10h-61
c-7 0 -11 3 -11 9v29c0 7 4 11 11 11h62c7 0 10 3 10 9c4 55 15 99 32 131c32 60 103 103 172 103c26 0 46 -6 59 -17c17 -14 25 -36 25 -66c0 -21 -8 -31 -24 -31c-17 -5 -37 26 -50 39c-17 15 -35 23 -54 23c-56 0 -85 -61 -86 -182c0 -6 4 -9 11 -9h219c7 0 11 3 11 9
c4 54 18 99 43 134c47 67 113 100 199 100c33 0 56 -5 69 -16zM867 34c10 -6 15 -12 15 -17c0 -11 -8 -17 -23 -17h-149c-15 0 -23 6 -23 17c0 6 5 12 15 17c15 8 24 16 29 24c10 15 15 50 15 107v228c0 29 -3 47 -10 55c-6 7 -16 13 -31 16c-15 4 -23 10 -23 18
c0 11 4 16 27 21c29 7 55 15 79 25c8 3 14 5 17 5c12 0 18 -8 18 -24v-344c0 -56 5 -92 15 -107c5 -9 15 -17 29 -24z" />
    <glyph glyph-name="ffl" unicode="ffl" horiz-adv-x="933" 
d="M874 34c10 -5 15 -11 15 -18c0 -11 -8 -16 -24 -16h-145c-15 0 -23 5 -23 16c0 7 5 13 15 18c15 8 24 16 29 24c10 17 15 53 15 106v460c0 12 -3 22 -10 31c-25 31 -58 47 -99 47c-89 0 -139 -72 -139 -188c0 -6 3 -9 9 -9c27 0 46 0 58 1c3 0 12 1 25 2s23 2 30 2
c17 0 25 -5 25 -15c0 -4 -1 -9 -4 -16c-8 -23 -12 -29 -35 -29c-11 0 -40 4 -49 4c-48 3 -60 6 -60 -10v-280c0 -55 5 -91 15 -106c4 -6 14 -14 30 -23c10 -5 15 -12 15 -19c0 -11 -8 -16 -23 -16h-148c-15 0 -23 5 -23 16c0 8 5 14 15 19c15 7 24 15 29 23
c10 17 15 52 15 106c0 13 0 56 -1 129v153c0 7 -3 10 -10 10h-217c-8 0 -12 -4 -12 -12v-159c1 -72 1 -112 1 -121c0 -54 5 -89 15 -106c4 -7 14 -14 29 -23c10 -5 15 -11 15 -19c0 -11 -8 -16 -23 -16h-148c-15 0 -23 5 -23 16c0 7 5 14 15 19c15 9 25 16 29 23
c10 17 15 52 15 106c0 13 0 56 -1 129v153c0 7 -3 10 -10 10h-60c-7 0 -11 3 -11 9v29c0 7 4 11 11 11h62c5 0 9 3 10 9c3 55 14 98 31 131c33 59 102 103 171 103c26 0 46 -5 61 -16c16 -11 24 -34 24 -68c0 -20 -8 -30 -23 -30c-6 0 -12 2 -17 5c-9 7 -28 28 -35 35
c-17 15 -34 22 -52 22c-48 0 -85 -57 -86 -182c0 -6 3 -9 10 -9h223c7 0 11 3 11 9c2 46 16 89 43 128c48 69 113 104 194 104c22 0 46 -4 73 -11c7 -2 11 -3 14 -3c12 0 41 15 52 15s17 -7 17 -22v-561c0 -55 5 -91 15 -106c7 -10 17 -18 30 -24z" />
    <glyph glyph-name="longs_i" unicode="&#x17f;i" horiz-adv-x="608" 
d="M381 731c16 -13 24 -34 24 -64c0 -22 -7 -33 -21 -33c-9 0 -21 8 -37 24c-25 25 -48 37 -69 37c-29 0 -51 -15 -65 -45c-13 -28 -20 -73 -20 -136v-350c0 -55 5 -91 15 -106c5 -9 15 -16 29 -23c11 -5 16 -11 16 -18c0 -11 -8 -17 -24 -17h-148c-15 0 -23 6 -23 17
c0 7 5 13 15 18c14 6 24 14 29 23c10 15 15 51 15 106c0 13 0 56 -1 129v153c0 7 -3 10 -10 10h-60c-7 0 -11 3 -11 9v29c0 7 4 11 11 11h62c5 0 9 3 10 9c3 55 14 98 31 131c36 63 104 103 173 103c25 0 44 -6 59 -17zM550 34c10 -6 15 -12 15 -17c0 -11 -8 -17 -23 -17
h-149c-15 0 -23 6 -23 17c0 6 5 12 15 17c15 8 24 16 29 24c10 15 15 51 15 107v228c0 29 -3 47 -10 55c-6 7 -16 13 -31 16c-15 4 -23 10 -23 18c0 11 4 16 27 21c29 7 55 15 79 25c8 3 14 5 17 5c12 0 18 -8 18 -24v-344c0 -56 5 -92 15 -107c5 -9 15 -17 29 -24z" />
    <glyph glyph-name="T_h" unicode="Th" horiz-adv-x="1057" 
d="M1004 35c11 -5 16 -11 16 -19c0 -11 -8 -16 -24 -16h-147c-15 0 -23 5 -23 16c0 8 5 14 15 19c14 7 24 14 29 23c10 15 15 51 15 106v172c0 42 -10 75 -30 98c-19 23 -47 35 -84 35s-67 -12 -90 -36c-19 -19 -33 -48 -40 -85s-10 -99 -10 -184c0 -53 5 -88 16 -106
c5 -9 15 -17 29 -23c10 -5 15 -11 15 -19c0 -11 -8 -16 -23 -16h-148c-15 0 -23 5 -23 16c0 8 4 14 13 18c15 7 26 15 31 24c10 15 15 51 15 106v448c0 26 -4 42 -12 49c-7 7 -26 10 -55 10h-147c-6 0 -9 -3 -9 -8v-499c0 -53 5 -89 15 -106c5 -9 16 -17 32 -25
c9 -5 13 -10 13 -16c0 -11 -8 -17 -24 -17h-148c-15 0 -23 5 -23 16c0 7 5 13 14 18c15 8 25 16 30 24c10 15 15 50 15 106v499c0 5 -3 8 -8 8h-14c-63 0 -91 -3 -120 -23c-12 -8 -20 -16 -28 -29l-8 -15l-17 -42c-7 -16 -15 -24 -26 -24c-14 0 -21 10 -21 31
c1 57 3 99 5 126c2 18 14 27 35 27c3 0 21 -1 56 -4s71 -4 109 -4h152c84 0 144 5 180 14c24 7 49 19 61 19s18 -8 18 -23v-282c0 -2 1 -3 2 -3s2 1 3 3c39 61 94 91 163 91c56 0 99 -20 129 -61c21 -29 32 -73 32 -134v-174c0 -57 5 -92 15 -106c7 -10 16 -18 29 -23z" />
    <glyph glyph-name="T_T" unicode="TT" horiz-adv-x="1052" 
d="M1031 695c3 -67 5 -110 5 -129s-7 -28 -22 -28c-11 0 -19 8 -26 24l-6 16c-4 16 -6 18 -11 30c-7 16 -17 28 -34 40c-28 20 -58 23 -122 23h-14c-5 0 -8 -3 -8 -8v-499c0 -55 5 -91 15 -106c6 -9 16 -17 29 -23c10 -5 15 -11 15 -18c0 -11 -8 -17 -24 -17h-147
c-17 0 -25 5 -25 16c0 8 5 14 16 19c15 6 25 14 30 23c10 17 15 53 15 106v499c0 5 -3 8 -8 8h-367c-6 0 -9 -3 -9 -8v-499c0 -52 5 -87 16 -106c5 -9 14 -17 29 -23c10 -5 15 -11 15 -18c0 -11 -8 -17 -23 -17h-149c-15 0 -23 6 -23 17c0 7 5 13 15 18c13 6 23 14 29 23
c10 17 15 53 15 106v499c0 5 -3 8 -8 8h-14c-63 0 -91 -3 -120 -23c-13 -9 -23 -19 -30 -32c-8 -12 -16 -37 -22 -54c-6 -16 -15 -24 -28 -24s-20 10 -20 31c1 57 3 99 5 126c1 18 12 27 35 27c3 0 21 -1 56 -4s71 -4 109 -4h611c38 0 74 1 109 4s54 4 57 4
c22 0 33 -9 34 -27z" />
    <glyph glyph-name="t_t.smcp" unicode="&#xe061;&#xe061;" horiz-adv-x="935" 
d="M907 492c3 -67 4 -101 4 -102c0 -23 -8 -35 -24 -35c-10 0 -19 8 -28 25c-3 5 -13 28 -18 36c-4 9 -16 25 -28 34c-18 13 -53 21 -105 22c-5 0 -7 -2 -7 -7v-301c0 -52 5 -87 16 -106c5 -9 14 -16 29 -23c10 -4 15 -10 15 -18c0 -11 -8 -17 -24 -17h-147
c-16 0 -24 6 -24 17c0 8 5 14 15 18c14 6 24 14 29 23c11 19 16 54 16 106v301c0 5 -2 7 -7 7h-303c-4 0 -6 -2 -6 -7v-301c0 -52 5 -87 15 -106c5 -9 14 -16 29 -23c10 -5 15 -11 15 -18c0 -11 -8 -17 -24 -17h-147c-16 0 -24 6 -24 17c0 8 5 14 16 19c13 6 23 13 28 22
c11 17 16 52 16 106v301c0 5 -2 7 -7 7c-52 -1 -87 -9 -105 -22c-12 -9 -24 -25 -29 -34c-4 -8 -14 -31 -17 -36c-9 -17 -18 -25 -28 -25c-15 0 -23 12 -23 35c0 18 1 52 3 102c1 17 12 26 35 26c3 0 21 -1 56 -4s72 -4 110 -4h478c38 0 74 1 109 4s53 4 56 4
c23 0 34 -9 35 -26z" />
    <glyph glyph-name=".notdef" horiz-adv-x="584" 
d="M133 19h317l-159 271zM133 599l158 -272l159 272h-317zM480 617v-617h-377v617h377zM461 581l-158 -272l158 -271v543zM122 38l159 271l-159 272v-543z" />
    <glyph glyph-name="NULL" horiz-adv-x="0" 
 />
    <glyph glyph-name="CR" horiz-adv-x="333" 
 />
    <glyph glyph-name="space" unicode=" " horiz-adv-x="225" 
 />
    <glyph glyph-name="exclam" unicode="!" horiz-adv-x="333" 
d="M251 57c0 -11 -9 -25 -26 -42s-31 -26 -42 -26s-26 9 -44 26c-17 17 -26 31 -26 42s9 26 26 43c18 18 33 27 44 27s25 -9 42 -27c17 -17 26 -32 26 -43zM152 320c-1 25 -4 77 -10 155c-6 79 -9 135 -9 170c-1 50 4 76 50 80c41 0 49 -26 49 -81c0 -35 -3 -91 -9 -169
s-9 -130 -10 -155c0 -68 1 -105 -30 -105c-33 0 -31 37 -31 105z" />
    <glyph glyph-name="quotedbl" unicode="&#x22;" horiz-adv-x="378" 
d="M305 705c11 -7 16 -28 16 -61c0 -40 -4 -79 -13 -118c-9 -48 -18 -66 -35 -66s-25 18 -36 66c-8 36 -12 77 -12 124c0 29 5 47 16 55c8 6 19 9 32 9s23 -3 32 -9zM137 705c11 -7 16 -28 16 -61c0 -40 -4 -79 -13 -118c-9 -48 -18 -66 -35 -66s-25 18 -36 66
c-8 36 -12 77 -12 124c0 29 5 47 16 55c8 6 19 9 32 9s23 -3 32 -9z" />
    <glyph glyph-name="numbersign" unicode="#" horiz-adv-x="634" 
d="M571 520l-14 -43h-114l-43 -133h114l-15 -43h-114l-66 -205h-50l67 205h-110l-67 -205h-49l66 205h-113l14 43h113l43 133h-113l14 43h113l67 206h50l-67 -206h110l67 206h50l-67 -206h114zM240 344h110l43 133h-110z" />
    <glyph glyph-name="dollar" unicode="$" horiz-adv-x="542" 
d="M140 585c0 -49 31 -82 78 -101c24 -9 49 -17 74 -25c51 -15 110 -41 141 -78c22 -27 33 -58 33 -94c0 -49 -17 -92 -52 -127c-34 -35 -76 -57 -126 -65v-87c0 -5 -3 -8 -8 -8h-23c-5 0 -8 3 -8 8v83h-13c-79 0 -150 27 -174 68c-9 17 -15 43 -16 77c0 7 -1 22 -1 26
c0 16 7 24 21 24c6 0 11 -3 16 -8c9 -11 25 -42 36 -57c42 -57 89 -86 142 -86c79 0 137 48 137 120c0 43 -18 74 -53 93c-17 9 -34 17 -51 23c-33 12 -89 28 -118 41c-69 31 -103 78 -103 141c0 45 16 84 49 116s75 51 128 56v89c0 5 3 7 8 7h23c5 0 8 -2 8 -7v-88
c64 -3 108 -18 131 -45c15 -17 23 -45 23 -84c0 -30 -8 -45 -23 -45c-7 0 -14 4 -20 12c-12 16 -30 52 -46 71c-29 33 -63 50 -101 50c-67 0 -112 -47 -112 -100z" />
    <glyph glyph-name="percent" unicode="%" horiz-adv-x="799" 
d="M292 535c0 92 -36 161 -84 161c-53 0 -80 -62 -80 -161c0 -45 8 -84 23 -115c16 -31 36 -47 61 -47c53 0 80 54 80 162zM360 534c0 -54 -14 -100 -42 -137s-64 -55 -108 -55c-103 0 -150 80 -150 192c0 54 14 99 42 136c29 37 65 56 108 56c96 0 150 -76 150 -192z
M683 182c0 92 -36 161 -84 161c-53 0 -80 -62 -80 -161c0 -45 8 -84 23 -115c16 -31 36 -47 61 -47c53 0 80 54 80 162zM751 181c0 -54 -14 -100 -42 -137s-64 -55 -108 -55c-103 0 -150 80 -150 192c0 54 14 99 42 136c29 37 65 56 108 56c96 0 150 -76 150 -192zM160 0
l437 714h53l-437 -714h-53z" />
    <glyph glyph-name="ampersand" unicode="&#x26;" horiz-adv-x="694" 
d="M455 95c3 3 3 5 -1 9c-23 22 -72 64 -145 127c-47 41 -82 75 -105 102c-44 -23 -74 -75 -74 -130c0 -45 17 -85 52 -120c34 -33 77 -49 129 -49c59 0 107 20 144 61zM467 395h157c14 0 21 -5 21 -16c5 -10 -20 -19 -25 -23c-19 -11 -32 -30 -40 -57c-2 -7 -6 -22 -11 -45
c-9 -45 -19 -76 -36 -108c-1 -3 -2 -5 -2 -6s3 -4 8 -9c43 -43 64 -84 64 -121c0 -7 -3 -10 -10 -10h-54c-9 0 -14 3 -15 10c-5 21 -17 42 -35 61c-3 3 -3 3 -6 0c-51 -55 -115 -83 -194 -83c-64 0 -119 18 -166 55c-46 37 -69 86 -69 145c0 77 48 147 123 172c3 1 4 2 4 3
l-2 4c-19 29 -30 59 -34 89c-1 5 -1 12 -1 21c0 47 16 84 47 112c32 28 71 42 117 42c53 0 87 -12 104 -37c7 -11 11 -29 11 -56c0 -44 -4 -55 -23 -55c-7 0 -13 3 -18 8c-9 11 -24 43 -33 56c-17 27 -39 40 -64 40c-45 0 -75 -37 -75 -89c0 -63 51 -122 144 -203l142 -122
c3 -3 5 -3 8 2c13 28 20 57 20 86c0 48 -21 81 -64 98c-12 5 -18 12 -18 19c0 11 8 17 25 17z" />
    <glyph glyph-name="quotesingle" unicode="'" horiz-adv-x="209" 
d="M137 705c11 -7 16 -28 16 -61c0 -40 -4 -79 -13 -118c-9 -48 -18 -66 -35 -66s-25 18 -36 66c-8 36 -12 77 -12 124c0 29 5 47 16 55c8 6 19 9 32 9s23 -3 32 -9z" />
    <glyph glyph-name="parenleft" unicode="(" horiz-adv-x="366" 
d="M335 -143c0 -9 -6 -13 -19 -13c-16 0 -40 11 -72 34c-31 23 -61 53 -90 92c-71 94 -106 202 -106 325s35 232 106 326c29 39 59 69 90 92c32 23 56 34 72 34c13 0 19 -4 19 -13c0 -5 -6 -11 -18 -19c-40 -23 -74 -54 -101 -93c-57 -77 -86 -186 -86 -326
c0 -141 29 -250 86 -327c27 -39 61 -70 101 -93c8 -8 18 -7 18 -19z" />
    <glyph glyph-name="parenright" unicode=")" horiz-adv-x="366" 
d="M31 734c0 9 6 13 19 13c17 0 41 -11 72 -34c32 -23 62 -53 91 -92c70 -95 105 -203 105 -325c0 -123 -35 -231 -105 -326c-29 -39 -59 -69 -91 -92c-31 -23 -55 -34 -72 -34c-13 0 -19 4 -19 13c0 8 10 15 18 19c41 24 75 55 102 93c57 78 85 187 85 326
c0 140 -28 249 -85 327c-27 38 -61 69 -102 93c-8 4 -18 11 -18 19z" />
    <glyph glyph-name="asterisk" unicode="*" horiz-adv-x="461" 
d="M199 628c-10 37 -15 65 -15 84c0 13 2 21 7 26c6 6 18 9 36 9c17 0 29 -3 35 -9c5 -5 7 -14 7 -26c0 -11 -5 -39 -15 -84c-7 -28 -16 -42 -27 -42c-12 0 -21 14 -28 42zM169 554c-34 0 -63 3 -86 8c-28 7 -41 14 -41 31c0 8 2 17 5 27c7 20 16 30 29 30c8 0 19 -3 33 -9
c15 -6 35 -17 60 -34c21 -13 32 -25 32 -34c0 -13 -11 -19 -32 -19zM207 487c-13 -31 -22 -52 -28 -63c-12 -21 -24 -31 -35 -31c-9 0 -19 4 -30 13c-15 12 -22 22 -22 30c0 10 6 22 19 37c9 11 26 26 51 46c17 14 29 21 36 21c13 0 19 -6 19 -19c0 -7 -3 -19 -10 -34z
M288 518c21 -16 38 -31 52 -46c25 -27 27 -44 -4 -67c-13 -9 -23 -13 -29 -13c-12 0 -24 10 -35 31c-3 6 -13 27 -28 63c-7 15 -10 27 -10 34c0 13 6 19 17 19c7 0 20 -7 37 -21zM283 605c24 16 43 27 56 33c16 7 28 11 37 11c12 0 22 -11 29 -32c3 -9 5 -17 5 -25
c0 -16 -14 -27 -42 -32s-55 -8 -81 -8c-24 0 -36 7 -36 20c0 10 14 24 32 33z" />
    <glyph glyph-name="plus" unicode="+" horiz-adv-x="690" 
d="M606 372v-30c0 -6 -3 -9 -10 -9h-220c-3 0 -5 -2 -5 -5v-222c0 -7 -3 -10 -10 -10h-32c-7 0 -10 3 -10 10v222c0 3 -2 5 -5 5h-220c-7 0 -10 3 -10 9v30c0 7 3 10 10 10h220c3 0 5 1 5 4v222c0 7 3 10 10 10h32c7 0 10 -3 10 -10v-222c0 -3 2 -4 5 -4h220
c7 0 10 -3 10 -10z" />
    <glyph glyph-name="comma" unicode="," horiz-adv-x="252" 
d="M160 87c23 -23 34 -53 34 -89c0 -37 -13 -74 -39 -111c-31 -41 -61 -62 -77 -62c-15 0 -23 17 -13 27c4 4 29 22 46 49c9 15 14 29 14 42c0 17 -11 35 -32 55c-24 23 -36 40 -36 53c0 9 8 22 23 38c16 16 29 24 39 24c11 0 25 -9 41 -26z" />
    <glyph glyph-name="hyphen" unicode="-" horiz-adv-x="338" 
d="M48 249v48c0 6 4 9 11 9h221c7 0 10 -3 10 -9v-48c0 -6 -3 -9 -10 -9h-221c-7 0 -11 3 -11 9z" />
    <glyph glyph-name="period" unicode="." horiz-adv-x="253" 
d="M196 57c0 -11 -9 -25 -27 -43c-18 -17 -32 -26 -43 -26s-25 9 -43 26c-17 17 -26 32 -26 43s9 26 26 43c17 18 32 27 43 27s26 -9 43 -27c18 -17 27 -32 27 -43z" />
    <glyph glyph-name="slash" unicode="/" horiz-adv-x="484" 
d="M486 748h37c3 0 5 -1 5 -3c0 -1 -1 -3 -2 -5l-506 -829c-3 -5 -7 -8 -12 -8h-36c-4 0 -6 2 -6 5c0 1 1 3 2 5l507 829c3 4 6 6 11 6z" />
    <glyph glyph-name="zero" unicode="0" horiz-adv-x="711" 
d="M558 357c0 94 -19 172 -58 234c-38 63 -86 94 -145 94c-64 0 -114 -31 -150 -92c-35 -61 -53 -139 -53 -236c0 -93 19 -171 57 -234c39 -63 87 -94 146 -94c123 0 203 113 203 328zM643 362c0 -103 -28 -191 -84 -264c-55 -73 -126 -109 -212 -109c-62 0 -115 17 -158 50
c-85 68 -121 175 -121 306c0 107 28 197 85 270c57 74 127 111 208 111c87 0 155 -33 206 -99s76 -154 76 -265z" />
    <glyph glyph-name="one" unicode="1" horiz-adv-x="364" 
d="M247 701v-689c0 -8 -5 -12 -14 -12h-48c-9 0 -14 4 -14 12v554c0 45 -2 70 -7 77c-5 8 -20 12 -45 12c-17 0 -57 -2 -73 -2c-14 0 -21 7 -21 21c0 13 6 20 18 22c13 2 33 4 60 6c26 2 53 7 82 14c24 6 38 9 41 9c14 0 21 -8 21 -24z" />
    <glyph glyph-name="two" unicode="2" horiz-adv-x="571" 
d="M100 667c31 31 99 59 179 59c65 0 118 -18 161 -53s65 -81 65 -137c0 -55 -22 -103 -65 -144c-23 -22 -55 -45 -96 -69c-81 -47 -163 -95 -204 -148c-23 -29 -34 -56 -34 -80c0 -14 7 -21 20 -21h261c27 0 47 2 59 5c15 4 27 15 36 33c5 8 10 12 17 12c9 0 13 -6 13 -18
c0 -6 -1 -22 -4 -47c-3 -29 -8 -47 -13 -54c-5 -6 -20 -9 -45 -9c-11 0 -33 1 -66 2s-58 2 -77 2h-208c-35 0 -43 13 -43 48c0 17 2 35 6 54s14 43 30 73c17 30 39 57 66 81c25 23 60 49 103 79s74 53 92 68c45 39 67 84 67 137c0 38 -12 72 -37 101c-24 30 -57 45 -100 45
c-38 0 -71 -13 -99 -40c-18 -17 -37 -47 -58 -90c-7 -15 -16 -22 -27 -22c-15 0 -23 17 -23 52c0 39 8 66 24 81z" />
    <glyph glyph-name="three" unicode="3" horiz-adv-x="581" 
d="M346 377c56 -5 99 -25 130 -60c31 -34 46 -74 46 -121c0 -52 -19 -97 -57 -135c-48 -48 -115 -72 -202 -72c-43 0 -83 6 -120 19c-36 13 -60 31 -73 54c-11 19 -17 55 -17 108c0 19 12 29 25 29c12 0 21 -7 28 -21c43 -88 95 -145 180 -145c88 0 153 65 153 169
c0 105 -75 154 -179 154c-25 0 -59 -4 -63 -4c-15 0 -22 8 -22 24c0 3 -1 9 -1 12c0 11 7 17 22 17c5 0 44 -4 77 -4c83 0 143 52 143 147c0 84 -56 137 -131 137c-44 0 -81 -16 -110 -48c-37 -40 -56 -112 -76 -106c-17 0 -25 15 -25 45c0 57 8 80 33 103
c28 25 97 47 174 47c61 0 113 -16 155 -48s63 -75 63 -128c0 -77 -52 -147 -153 -168c-5 -1 -5 -5 0 -5z" />
    <glyph glyph-name="four" unicode="4" horiz-adv-x="614" 
d="M451 242h96c9 0 13 -4 13 -12v-39c0 -9 -4 -13 -13 -13h-96c-8 0 -12 -4 -12 -11c0 -55 5 -91 16 -108c7 -11 17 -19 29 -25c11 -5 16 -11 16 -18c0 -11 -8 -16 -25 -16h-147c-17 0 -25 5 -25 15c0 7 5 13 16 19c13 7 23 15 29 25c11 18 16 54 16 108c0 9 -2 11 -11 11
h-290c-9 0 -13 4 -13 12v20c0 5 2 10 5 14c139 163 200 314 208 493c0 6 3 9 9 9h56c5 0 8 -3 8 -9c-8 -73 -30 -150 -67 -232s-84 -160 -141 -234c-2 -3 -3 -5 -3 -6c0 -2 2 -3 5 -3h223c7 0 11 4 11 12v361c0 9 4 13 13 13h49c9 0 13 -5 13 -14v-360c0 -8 4 -12 12 -12z
" />
    <glyph glyph-name="five" unicode="5" horiz-adv-x="567" 
d="M452 364c38 -41 57 -90 57 -147c0 -83 -36 -147 -109 -192c-39 -24 -85 -36 -140 -36c-80 0 -156 25 -185 69c-13 19 -19 51 -19 97c0 33 4 48 27 48c16 0 25 -12 30 -31c5 -17 25 -54 53 -85c33 -36 74 -54 122 -54c44 0 80 15 109 46s43 69 43 114s-13 82 -40 111
c-24 28 -59 50 -104 67s-112 26 -201 27c-4 0 -6 1 -6 4c0 1 0 3 1 6l59 298c1 5 4 8 8 8h156c53 0 87 2 102 5c13 3 24 11 33 22c7 8 13 12 19 12c9 0 14 -6 14 -18c0 -3 -1 -15 -4 -36c-3 -30 -7 -47 -12 -50s-16 -5 -33 -5h-251c-3 0 -5 -2 -6 -5l-32 -162
c-1 -3 -1 -5 -1 -7c0 -3 2 -5 6 -5c143 -2 245 -36 304 -101z" />
    <glyph glyph-name="six" unicode="6" horiz-adv-x="610" 
d="M476 218c0 135 -62 211 -157 211c-92 0 -157 -72 -157 -197c0 -131 63 -205 159 -205c42 0 78 17 109 52s46 81 46 139zM509 622c0 -45 -8 -67 -25 -67c-9 0 -16 3 -21 10c-11 15 -22 54 -33 71c-20 35 -52 52 -95 52c-51 0 -94 -28 -129 -84c-35 -55 -53 -139 -54 -250
c0 -5 1 -7 2 -7s2 2 4 7c33 83 112 124 191 124c63 0 113 -22 150 -65c36 -43 54 -98 54 -167c0 -71 -23 -132 -68 -182s-102 -75 -170 -75c-81 0 -144 37 -191 111c-37 58 -56 136 -56 233c0 96 23 188 67 265s122 128 215 128c68 0 129 -26 148 -55c7 -11 11 -28 11 -49z
" />
    <glyph glyph-name="seven" unicode="7" horiz-adv-x="543" 
d="M443 498c-13 -18 -36 -46 -70 -84c-33 -37 -56 -64 -69 -79c-75 -90 -112 -167 -112 -231c0 -32 10 -54 29 -67c11 -7 17 -14 17 -21c0 -11 -8 -16 -24 -16h-71c-32 0 -39 16 -39 48c0 45 17 99 50 161c18 33 41 68 70 104s61 73 96 110c35 38 58 64 69 78
c40 50 60 94 60 133c0 6 -3 9 -10 9h-243c-49 0 -80 -3 -93 -8c-20 -8 -29 -31 -42 -31c-9 0 -14 6 -14 18c0 8 1 20 3 36c3 29 8 46 15 51c5 3 16 5 31 5h389c12 0 18 -5 18 -14c0 -89 -19 -142 -60 -202z" />
    <glyph glyph-name="eight" unicode="8" horiz-adv-x="611" 
d="M438 547c0 91 -58 138 -129 138c-83 0 -138 -55 -138 -136c0 -46 13 -82 40 -107s59 -38 96 -38c73 0 131 56 131 143zM146 189c0 -51 16 -91 47 -119c32 -28 69 -42 111 -42c46 0 84 15 115 45s47 70 47 119c0 53 -17 94 -51 123c-33 29 -69 44 -107 44
c-42 0 -80 -15 -113 -46s-49 -72 -49 -124zM520 557c0 -43 -13 -77 -38 -104c-25 -26 -53 -45 -86 -57c-8 -3 -12 -5 -12 -8c0 -2 4 -4 12 -6c43 -11 80 -32 110 -64s45 -72 45 -121c0 -59 -24 -109 -72 -149c-48 -39 -108 -59 -179 -59c-69 0 -126 19 -171 56
s-68 84 -68 140c0 91 63 162 155 182c6 1 9 2 9 5s-3 6 -8 7c-31 11 -60 30 -87 57c-27 28 -40 63 -40 105c0 53 20 97 61 132s94 53 157 53c61 0 111 -15 151 -46c41 -31 61 -72 61 -123z" />
    <glyph glyph-name="nine" unicode="9" horiz-adv-x="615" 
d="M137 494c0 -135 62 -209 157 -209c92 0 157 72 157 197c-1 131 -63 205 -155 205c-47 0 -86 -18 -115 -54s-44 -82 -44 -139zM88 134c0 26 8 39 25 39c24 6 35 -53 68 -94c29 -33 62 -50 100 -50c119 0 180 112 181 337c0 2 -1 3 -2 3l-2 -3c-33 -85 -110 -133 -191 -133
c-57 0 -106 21 -147 64c-40 43 -60 99 -60 168c0 72 22 133 67 184s102 77 173 77c113 0 202 -78 233 -210c9 -40 14 -84 14 -133c0 -210 -82 -394 -281 -394c-71 0 -139 22 -160 53c-12 17 -18 47 -18 92z" />
    <glyph glyph-name="colon" unicode=":" horiz-adv-x="354" 
d="M105 452c0 11 9 26 26 43c18 18 32 27 43 27s26 -9 43 -27c18 -17 27 -32 27 -43s-9 -25 -27 -43c-17 -17 -32 -26 -43 -26s-25 9 -43 26c-17 18 -26 32 -26 43zM244 57c0 -11 -9 -25 -27 -43c-18 -17 -32 -26 -43 -26s-25 9 -43 26c-17 17 -26 32 -26 43s9 26 26 43
c17 18 32 27 43 27s26 -9 43 -27c18 -17 27 -32 27 -43z" />
    <glyph glyph-name="semicolon" unicode=";" horiz-adv-x="354" 
d="M244 452c0 -11 -9 -26 -27 -43c-17 -17 -32 -26 -43 -26s-25 9 -43 26c-17 18 -26 32 -26 43s9 26 26 43c18 18 32 27 43 27s25 -9 43 -27s27 -32 27 -43zM208 87c23 -23 34 -53 34 -89c0 -37 -13 -74 -39 -111c-31 -41 -61 -62 -77 -62c-15 0 -23 17 -13 27
c4 4 29 22 46 49c9 15 14 29 14 42c0 17 -11 35 -32 55c-24 23 -36 40 -36 53c0 9 8 22 23 38c16 16 29 24 39 24c11 0 25 -9 41 -26z" />
    <glyph glyph-name="less" unicode="&#x3c;" horiz-adv-x="736" 
d="M633 117v-42c0 -5 -2 -7 -5 -7c-1 0 -3 1 -6 2l-515 226c-6 3 -9 7 -9 14v29c0 7 3 12 9 15l513 225c4 2 7 3 8 3c3 0 5 -2 5 -6v-42c0 -7 -4 -12 -11 -15l-438 -191c-3 -1 -3 -5 0 -6l438 -190c7 -3 11 -8 11 -15z" />
    <glyph glyph-name="equal" unicode="=" horiz-adv-x="737" 
d="M630 464v-29c0 -7 -4 -10 -11 -10h-502c-7 0 -10 3 -10 10v29c0 7 3 10 10 10h502c7 0 11 -3 11 -10zM630 279v-29c0 -6 -4 -9 -11 -9h-502c-7 0 -10 3 -10 9v29c0 7 3 10 10 10h502c7 0 11 -3 11 -10z" />
    <glyph glyph-name="greater" unicode="&#x3e;" horiz-adv-x="736" 
d="M103 533v42c0 5 2 7 5 7c1 0 3 -1 6 -2l515 -226c6 -3 9 -7 9 -14v-29c0 -7 -3 -12 -9 -15l-513 -225c-4 -2 -7 -3 -8 -3c-3 0 -5 2 -5 6v42c0 7 4 12 11 15l438 191c3 1 3 5 0 6l-438 190c-7 3 -11 8 -11 15z" />
    <glyph glyph-name="question" unicode="?" horiz-adv-x="491" 
d="M237 682c-36 0 -63 -10 -82 -31c-18 -21 -27 -42 -27 -64c0 -23 9 -38 28 -47c17 -7 26 -16 26 -26c0 -21 -23 -38 -52 -38c-40 0 -72 37 -72 88c0 41 17 78 51 111s79 50 134 50c61 0 110 -18 145 -54c36 -35 54 -79 54 -130c0 -63 -26 -117 -77 -160
c-13 -11 -35 -25 -66 -43c-61 -36 -94 -64 -94 -100c0 -16 7 -26 20 -31c10 -3 15 -9 15 -16c0 -13 -12 -20 -36 -20c-39 0 -59 19 -59 56c0 26 14 53 42 80c5 5 25 21 62 50s62 53 76 71c25 31 38 69 38 113c0 81 -47 141 -126 141zM269 57c0 -11 -9 -25 -27 -42
c-17 -17 -31 -26 -42 -26s-25 9 -43 26c-17 17 -26 31 -26 42s9 26 26 43c18 18 32 27 43 27s26 -9 43 -27c17 -17 26 -32 26 -43z" />
    <glyph glyph-name="at" unicode="@" horiz-adv-x="1067" 
d="M555 190c27 38 50 79 68 122c19 43 28 74 28 92c0 15 -12 29 -35 42s-44 19 -65 19c-19 0 -38 -8 -55 -24c-30 -28 -56 -70 -78 -126c-21 -55 -32 -108 -32 -157c0 -53 14 -80 42 -80c31 0 74 37 127 112zM750 9c-51 0 -89 21 -115 62c-17 27 -26 67 -26 121l1 12
c-1 0 -2 -1 -3 -2c-27 -48 -59 -91 -96 -128c-36 -37 -74 -55 -113 -55c-64 0 -94 52 -94 124c0 71 22 145 67 221c55 93 119 139 192 139c23 0 47 -5 72 -14s39 -14 43 -14s8 1 11 2c9 3 17 12 21 16c7 7 13 10 19 10c11 0 16 -6 16 -18c0 -3 -2 -14 -6 -31
c-3 -17 -9 -42 -16 -77l-21 -102c-9 -46 -14 -85 -14 -116c0 -45 10 -75 30 -90c13 -9 28 -14 45 -14c45 0 84 28 118 83c29 48 44 106 44 174c0 97 -33 178 -98 244c-77 78 -170 117 -281 117s-206 -41 -285 -122s-118 -178 -118 -292s39 -211 118 -292s174 -121 285 -121
c121 0 235 53 312 148c5 7 11 10 17 10c9 0 18 -8 18 -17c0 -6 -2 -11 -6 -16c-84 -104 -209 -164 -341 -164c-123 0 -228 44 -315 132s-130 195 -130 320s43 232 130 320s192 132 315 132c113 0 230 -49 307 -126c75 -75 112 -168 112 -279c0 -81 -20 -150 -61 -209
s-92 -88 -154 -88z" />
    <glyph glyph-name="A" unicode="A" horiz-adv-x="728" 
d="M231 286h244c5 0 8 2 8 6c0 1 -1 4 -2 7l-117 303c-1 4 -3 6 -4 6c-2 0 -4 -2 -5 -6l-130 -304c-1 -3 -2 -5 -2 -6c0 -4 3 -6 8 -6zM700 32c9 -5 14 -10 14 -17c0 -10 -9 -15 -26 -15h-142c-15 0 -22 5 -22 15c0 6 5 12 15 17c17 9 26 20 26 33s-8 40 -24 80l-36 91
c-2 6 -7 9 -16 9h-278c-6 0 -10 -3 -12 -8c-35 -81 -52 -133 -52 -157c0 -22 11 -38 32 -48c9 -4 13 -9 13 -16c0 -11 -8 -16 -25 -16h-129c-18 0 -27 5 -27 14c0 13 10 13 20 23c17 11 31 25 41 40c13 19 25 41 36 66c161 360 245 550 253 571c2 5 6 8 11 8h21
c6 0 10 -3 12 -8c2 -7 38 -101 107 -282s106 -278 111 -289c21 -49 37 -80 49 -93c5 -5 15 -11 28 -18z" />
    <glyph glyph-name="B" unicode="B" horiz-adv-x="633" 
d="M582 205c0 -48 -16 -91 -59 -134s-129 -71 -248 -71h-195c-17 0 -26 6 -26 17c0 5 5 11 16 18c13 8 21 16 26 25c9 15 13 49 13 102v402c0 41 -1 68 -4 80c-2 12 -9 21 -20 28c-14 10 -30 10 -30 25c0 11 8 17 24 17h195c39 0 68 -1 87 -2c40 -1 101 -15 138 -44
c37 -28 55 -65 55 -112c0 -46 -16 -84 -47 -113s-66 -46 -106 -52c-5 -1 -8 -3 -8 -6s2 -5 7 -5c107 -9 182 -76 182 -175zM497 206c0 109 -75 153 -218 153c-25 0 -80 -1 -80 -1c-9 0 -13 -4 -13 -13v-181c0 -63 3 -100 10 -109s26 -13 57 -13h29c143 0 215 55 215 164z
M186 652v-236c0 -11 6 -16 18 -16h62c136 0 204 49 204 146c0 47 -20 81 -45 97c-12 9 -28 15 -48 20c-39 11 -63 11 -104 11c-5 0 -16 0 -34 -1h-33c-13 0 -20 -7 -20 -21z" />
    <glyph glyph-name="C" unicode="C" horiz-adv-x="687" 
d="M611 180c19 0 23 -11 23 -46c0 -57 -20 -96 -61 -115c-41 -20 -95 -30 -160 -30c-119 0 -216 44 -275 112c-59 69 -90 158 -90 254c0 120 51 226 142 295c65 51 139 76 221 76c63 0 117 -10 161 -31c21 -10 35 -22 41 -36s9 -38 9 -73c0 -40 -6 -49 -21 -49
c-23 -6 -35 57 -69 91c-37 38 -84 57 -139 57c-73 0 -134 -30 -185 -91c-50 -61 -75 -138 -75 -232c0 -97 26 -176 78 -239c52 -62 115 -93 189 -93c75 0 133 36 176 107c18 26 17 43 35 43z" />
    <glyph glyph-name="D" unicode="D" horiz-adv-x="748" 
d="M531 120c58 58 87 139 87 244c0 59 -12 114 -37 166s-65 91 -122 116c-21 9 -44 15 -71 19c-27 5 -51 7 -73 8s-57 1 -106 1c-14 0 -21 -6 -21 -18v-501c0 -39 1 -65 2 -77c1 -11 5 -20 12 -26c7 -7 25 -11 52 -11h26c112 0 196 26 251 79zM597 618
c69 -61 103 -144 103 -251c0 -95 -34 -182 -99 -253c-65 -69 -178 -114 -317 -114h-203c-18 0 -27 6 -27 17c0 5 6 11 17 18c12 5 21 13 28 23c9 15 13 49 13 104v402c0 42 -1 69 -4 81c-3 13 -10 22 -23 29c-5 3 -32 12 -27 23c0 11 9 17 27 17h179c90 0 159 -9 208 -26
s91 -40 125 -70z" />
    <glyph glyph-name="E" unicode="E" horiz-adv-x="621" 
d="M551 185c15 0 23 -8 23 -23c0 -7 -3 -20 -8 -40c-5 -19 -12 -58 -17 -75c-6 -27 -21 -59 -53 -55c-4 0 -23 1 -58 4s-70 4 -107 4h-248c-19 0 -28 5 -28 16c0 5 6 11 17 18c12 7 22 16 29 26c9 15 13 49 13 101v411c0 38 -1 63 -4 74s-10 20 -23 27c-11 7 -27 10 -27 24
c0 11 8 17 24 17h257c38 0 74 1 109 4s54 4 57 4c23 0 34 -9 35 -27c1 -11 2 -48 2 -63c1 -31 2 -52 2 -63c0 -20 -7 -30 -20 -30c-12 0 -21 8 -27 23l-9 23l-10 25c-4 9 -18 27 -34 38c-23 17 -80 25 -169 25h-67c-13 0 -19 -6 -19 -18v-238c0 -15 5 -20 21 -20
c36 0 70 1 103 3c67 3 103 5 108 5c24 0 36 -5 36 -15c0 -8 -4 -14 -4 -18c-5 -24 -13 -27 -40 -27c-11 0 -29 1 -54 2c-24 2 -43 3 -56 3c-51 1 -85 2 -102 2c-8 0 -12 -4 -12 -13v-213c0 -43 5 -67 14 -74c11 -8 39 -12 84 -12c27 0 53 1 77 4c41 5 70 15 88 30
c19 15 41 43 66 85c10 17 20 26 31 26z" />
    <glyph glyph-name="F" unicode="F" horiz-adv-x="583" 
d="M543 632l3 -63c0 -21 -7 -31 -21 -31c-12 0 -21 8 -27 24l-9 23c-4 12 -7 20 -10 25c-4 9 -17 27 -33 38c-25 17 -85 25 -181 25h-56c-13 0 -19 -6 -19 -18v-267c0 -16 4 -20 21 -20c40 0 74 1 102 2l61 4c27 2 45 3 55 3c19 0 29 -6 29 -17c0 -2 -1 -7 -3 -15
c-7 -28 -11 -30 -46 -30c-9 0 -26 1 -51 2c-24 2 -42 3 -54 3c-25 1 -59 1 -102 1c-8 -1 -12 -5 -12 -12v-148c0 -52 4 -86 13 -101c8 -11 18 -20 30 -26c11 -7 16 -13 16 -18c0 -11 -9 -16 -28 -16h-139c-19 0 -28 5 -28 16c0 5 6 11 17 18c11 6 21 15 29 26
c9 13 13 47 13 101v418c0 35 -1 57 -4 68s-10 19 -23 26c-11 7 -27 10 -27 24c0 11 8 17 25 17h257c38 0 74 1 109 4s53 4 56 4c23 0 34 -9 35 -27c1 -11 1 -32 2 -63z" />
    <glyph glyph-name="G" unicode="G" horiz-adv-x="730" 
d="M500 336h155c16 0 24 -5 24 -16c4 -11 -19 -17 -30 -25c-10 -7 -17 -17 -20 -31c-3 -13 -5 -40 -5 -79v-108c0 -15 -5 -27 -15 -36c-15 -11 -40 -23 -77 -35c-37 -11 -77 -17 -121 -17c-107 0 -195 35 -262 106s-101 157 -101 260c0 106 34 194 103 264
c69 71 155 106 260 107c65 0 120 -11 164 -32c37 -19 48 -44 48 -111c0 -37 -7 -46 -22 -46c-7 0 -12 2 -16 7c-8 9 -21 41 -33 60c-35 54 -86 81 -153 81c-79 0 -143 -30 -193 -89c-49 -59 -74 -132 -74 -221c0 -97 28 -178 83 -245s125 -100 210 -100c41 0 76 7 104 20
c13 5 19 16 19 31v104c0 43 -2 71 -6 83c-4 13 -15 22 -32 28c-15 8 -34 8 -34 24c0 11 8 16 24 16z" />
    <glyph glyph-name="H" unicode="H" horiz-adv-x="764" 
d="M693 34c11 -7 17 -13 17 -18c0 -11 -9 -16 -28 -16h-139c-19 0 -28 5 -28 15c0 7 5 13 16 19c15 9 25 17 30 26c9 15 13 49 13 101v186c0 7 -4 10 -11 10h-363c-7 0 -10 -3 -10 -9v-187c0 -52 4 -86 13 -101c6 -10 16 -19 30 -26c11 -6 16 -12 16 -19
c0 -10 -9 -15 -28 -15h-139c-19 0 -28 5 -28 16c0 5 6 11 17 18c11 6 21 15 29 26c9 13 13 47 13 101v403c0 39 -2 66 -5 79s-9 23 -19 30c-11 8 -34 14 -30 25c1 11 9 16 25 16h135c17 0 26 -5 26 -16c4 -11 -19 -17 -30 -25c-11 -7 -18 -17 -21 -30s-4 -40 -4 -79v-156
c0 -7 4 -10 12 -10h363c6 0 9 3 9 9v157c0 39 -2 66 -5 79s-9 23 -20 30c-11 8 -34 14 -30 25c1 11 9 16 26 16h135c16 0 24 -5 25 -16c4 -11 -19 -17 -30 -25c-10 -7 -17 -17 -20 -30s-4 -40 -4 -79v-403c0 -54 4 -88 13 -101c8 -11 18 -20 29 -26z" />
    <glyph glyph-name="I" unicode="I" horiz-adv-x="303" 
d="M233 35c11 -5 16 -12 16 -19c0 -11 -9 -16 -28 -16h-139c-19 0 -28 5 -28 16c0 7 6 13 17 19c12 6 22 14 29 25c9 13 13 47 13 101v402c0 40 -2 67 -5 80s-9 23 -19 30c-11 8 -35 14 -30 25c0 11 8 16 25 16h135c17 0 26 -5 26 -16c4 -11 -19 -17 -30 -25
c-11 -7 -18 -17 -21 -30s-4 -40 -4 -80v-402c0 -52 4 -86 13 -101c7 -9 17 -18 30 -25z" />
    <glyph glyph-name="J" unicode="J" horiz-adv-x="447" 
d="M263 246v304c0 53 -5 89 -15 106c-4 7 -14 15 -30 24c-10 5 -15 11 -15 18c0 11 8 16 24 16h146c15 0 23 -5 23 -16c0 -7 -5 -13 -15 -18c-13 -7 -22 -15 -27 -24c-10 -18 -15 -53 -15 -106v-102c1 -55 1 -96 1 -123c0 -112 -7 -171 -39 -227
c-40 -71 -115 -109 -198 -109c-30 0 -52 6 -67 18s-23 40 -23 85c0 25 7 38 22 38c8 0 17 -7 27 -21l8 -12c11 -13 12 -14 21 -26c16 -16 34 -28 62 -28c25 0 47 9 66 28c33 33 44 79 44 175z" />
    <glyph glyph-name="K" unicode="K" horiz-adv-x="714" 
d="M683 17c0 -11 -8 -17 -24 -17h-62c-18 0 -34 6 -48 18c-17 15 -64 76 -142 183c-114 152 -112 149 -127 151c-5 0 -14 -5 -27 -16l-51 -48c-8 -7 -12 -15 -12 -23v-104c0 -52 4 -86 13 -101c5 -8 15 -16 30 -25c11 -6 16 -12 16 -19c0 -11 -9 -16 -28 -16h-139
c-19 0 -28 5 -28 16c0 7 6 13 17 19c12 7 22 15 29 25c9 13 13 47 13 101v403c0 39 -2 66 -5 79s-9 23 -19 30c-11 8 -34 14 -30 25c1 11 9 16 25 16h135c17 0 25 -5 26 -16c4 -11 -19 -17 -30 -25c-11 -7 -18 -17 -21 -30s-4 -40 -4 -79v-225c0 -3 1 -4 3 -4c1 0 4 2 7 5
l237 226c44 42 66 71 66 86c0 11 -5 19 -16 26c-10 7 -15 14 -15 19c0 11 10 17 29 17h154c15 0 22 -5 22 -16c0 -4 -1 -7 -4 -10c-5 -5 -27 -14 -31 -15c-47 -23 -100 -64 -160 -122l-156 -147c-3 -3 -4 -5 -4 -7c0 -4 2 -6 6 -6c3 0 8 3 13 3c11 0 24 -9 38 -26
c8 -9 27 -33 39 -52l62 -84c54 -74 94 -124 119 -151c25 -26 46 -42 63 -47c14 -5 21 -10 21 -17z" />
    <glyph glyph-name="L" unicode="L" horiz-adv-x="557" 
d="M522 186c15 0 22 -8 22 -23c0 -9 -3 -24 -9 -44c-3 -10 -7 -25 -11 -44s-8 -34 -11 -44c-5 -19 -21 -39 -48 -39c-9 0 -29 1 -62 4s-67 4 -103 4h-218c-19 0 -28 5 -28 16c0 5 6 11 17 18c13 8 22 17 29 26c9 13 13 47 13 101v403c0 40 -2 67 -5 80s-9 23 -19 30
c-11 8 -34 14 -30 25c1 10 9 15 25 15h135c17 0 26 -5 26 -15c4 -11 -19 -17 -30 -25c-11 -7 -18 -17 -21 -30s-4 -40 -4 -80v-438c0 -43 5 -67 14 -74c11 -8 34 -12 67 -12c19 0 40 1 64 4c41 5 70 15 88 30s40 43 66 85c12 18 23 27 33 27z" />
    <glyph glyph-name="M" unicode="M" horiz-adv-x="875" 
d="M803 35c11 -7 17 -14 17 -19c0 -11 -9 -16 -28 -16h-139c-19 0 -29 6 -29 17c0 10 11 12 17 18c12 7 22 15 30 25c9 16 13 77 13 182v373c0 3 -1 4 -4 4c-2 0 -4 -1 -5 -4l-226 -488c-3 -7 -9 -11 -17 -11h-19c-8 0 -14 4 -17 11l-225 489c-1 2 -2 3 -4 3
c-3 0 -4 -1 -4 -4c0 -255 1 -406 4 -451c4 -80 25 -111 70 -127c12 -5 18 -11 18 -20c0 -11 -8 -17 -24 -17h-157c-19 0 -28 6 -28 18c0 13 19 21 32 32c15 13 26 34 32 62c7 29 10 77 10 144v383c0 7 -2 13 -7 18s-14 11 -27 16c-17 6 -32 11 -32 25c0 11 8 16 24 16h111
c14 0 23 -5 28 -16l220 -478c4 -8 6 -8 10 0l222 478c5 11 13 16 24 16h97c16 0 24 -5 25 -15c4 -11 -19 -17 -30 -25c-10 -7 -17 -17 -20 -30s-4 -40 -4 -79v-403c0 -53 4 -87 13 -102c6 -9 16 -17 29 -25z" />
    <glyph glyph-name="N" unicode="N" horiz-adv-x="770" 
d="M553 714h147c19 0 28 -5 28 -16c0 -13 -15 -17 -26 -22c-29 -12 -46 -36 -51 -121c-2 -30 -3 -166 -3 -408v-143c0 -8 -4 -12 -13 -12h-20c-4 0 -9 3 -14 10l-421 583c-1 2 -3 3 -4 3c-3 0 -4 -2 -4 -5c0 -245 1 -385 3 -419c5 -80 26 -112 71 -128c12 -5 18 -11 18 -19
c0 -11 -8 -17 -25 -17h-167c-18 0 -27 6 -27 17c0 15 16 13 24 21c33 14 52 56 55 126c3 61 5 220 5 475c0 5 -2 10 -6 14c-9 9 -19 15 -32 20c-20 8 -40 6 -40 23c0 12 9 18 28 18h83c13 0 23 -4 28 -12l405 -562c2 -3 4 -5 6 -5c3 0 4 1 4 4c0 236 -1 375 -3 416
c-4 80 -20 109 -53 121c-1 0 -2 0 -4 1c-14 6 -21 12 -22 19c0 12 10 18 30 18z" />
    <glyph glyph-name="O" unicode="O" horiz-adv-x="806" 
d="M399 687c-75 0 -138 -29 -189 -86s-76 -132 -76 -225c0 -96 25 -178 75 -245c51 -67 117 -101 198 -101c80 0 144 30 193 89c49 60 73 134 73 223c0 61 -11 117 -33 168c-43 104 -132 177 -241 177zM757 361c0 -103 -34 -190 -101 -263s-151 -109 -252 -109
c-119 0 -212 39 -277 117c-52 63 -78 145 -78 244c0 101 34 189 101 264c68 75 153 112 254 112c112 0 200 -36 264 -107c59 -65 89 -151 89 -258z" />
    <glyph glyph-name="P" unicode="P" horiz-adv-x="584" 
d="M452 421c14 24 21 55 21 92c0 38 -8 69 -24 92c-37 55 -92 68 -187 68h-52c-13 0 -20 -7 -20 -21v-294c0 -10 6 -15 17 -15h46c104 0 164 18 199 78zM529 414c-46 -75 -136 -112 -271 -112h-57c-7 0 -11 -4 -11 -13v-125c0 -53 5 -88 15 -107c5 -9 15 -17 29 -23
c10 -4 15 -10 15 -18c0 -11 -8 -16 -23 -16h-149c-15 0 -23 5 -23 16c0 7 5 13 15 18c14 6 24 14 29 23c11 18 16 54 16 107v400c0 42 -1 69 -4 80c-3 12 -10 22 -23 29c-11 8 -28 9 -28 24c0 11 8 17 25 17h167c42 0 74 -1 97 -2s51 -7 82 -18c32 -10 58 -25 78 -46
c33 -33 50 -76 50 -129c0 -39 -10 -74 -29 -105z" />
    <glyph glyph-name="Q" unicode="Q" horiz-adv-x="812" 
d="M407 29c75 0 138 28 189 84c51 57 77 132 77 226c0 96 -25 178 -76 245c-51 68 -117 102 -198 102c-71 0 -133 -27 -186 -82s-79 -131 -79 -229c0 -61 11 -117 32 -169c43 -104 132 -177 241 -177zM758 354c0 -81 -24 -154 -72 -221c-47 -66 -109 -110 -185 -132
c10 -3 33 -16 70 -39c75 -48 124 -72 147 -72c5 0 17 3 22 3c11 0 16 -5 16 -15c0 -7 -4 -12 -11 -17l-46 -32c-9 -6 -18 -9 -28 -9c-11 0 -31 8 -50 20c-11 5 -34 22 -45 30l-27 19c-12 9 -21 15 -26 18c-74 52 -127 79 -159 82c-200 17 -315 152 -315 364
c0 101 34 188 101 262c68 74 153 111 254 111c109 0 195 -34 259 -101c63 -67 95 -158 95 -271z" />
    <glyph glyph-name="R" unicode="R" horiz-adv-x="667" 
d="M206 387h68c112 0 194 46 194 151c0 49 -18 86 -41 103c-11 9 -27 16 -46 21c-37 11 -59 11 -103 11h-66c-15 0 -23 -6 -23 -18v-254c0 -9 6 -14 17 -14zM622 36c7 -7 19 -7 19 -20c0 -11 -7 -16 -21 -16h-57c-25 0 -36 10 -51 37c-5 9 -12 23 -20 42l-27 69
c-11 27 -19 48 -24 62c-33 80 -68 122 -129 133c-18 3 -40 5 -65 5c-23 0 -38 -1 -46 -2s-12 -5 -12 -12v-170c0 -53 5 -89 15 -106c5 -9 15 -17 30 -23c10 -5 15 -12 15 -19c0 -11 -8 -16 -24 -16h-148c-15 0 -23 5 -23 16c0 7 5 14 15 19c15 6 24 14 29 23
c10 15 15 51 15 106v400c0 41 -1 68 -4 80c-3 13 -10 23 -23 30c-11 5 -27 9 -27 23c0 11 8 17 24 17h106h63c28 1 48 1 61 1c90 0 153 -16 190 -49c33 -31 50 -70 50 -117c0 -97 -70 -161 -163 -176c-5 -1 -8 -3 -8 -6s3 -4 8 -5c32 -5 57 -19 75 -41
c19 -21 40 -60 63 -115c27 -66 46 -109 57 -130s24 -34 37 -40z" />
    <glyph glyph-name="S" unicode="S" horiz-adv-x="577" 
d="M468 675c18 -21 27 -52 27 -95c0 -35 -7 -52 -22 -52c-10 0 -19 6 -26 19l-14 24c-17 32 -30 50 -47 67c-33 31 -69 47 -110 47c-80 -1 -135 -58 -135 -123c0 -36 15 -66 44 -91c19 -16 58 -34 119 -53s106 -37 134 -54c56 -35 84 -84 84 -149c0 -64 -27 -119 -81 -165
c-48 -41 -107 -61 -176 -61c-92 0 -174 30 -201 79c-9 17 -15 45 -18 84c-1 15 -2 26 -2 33c0 17 7 25 21 25c7 0 13 -3 18 -10c7 -8 25 -45 36 -61c48 -70 105 -105 172 -105c48 0 87 14 118 42s46 63 46 105c0 45 -18 81 -54 106c-20 14 -49 27 -87 38
c-76 23 -153 47 -197 92c-29 30 -43 67 -43 111c0 56 22 103 67 141s100 57 166 57c69 0 136 -22 161 -51z" />
    <glyph glyph-name="T" unicode="T" horiz-adv-x="592" 
d="M577 569c0 -21 -7 -31 -21 -31c-11 0 -20 8 -26 24l-9 23l-10 25c-4 9 -18 27 -34 38c-11 7 -24 13 -39 16c-29 7 -45 7 -90 7h-6c-6 0 -9 -3 -9 -8v-499c0 -51 5 -87 16 -107c4 -7 14 -14 29 -23c10 -4 15 -10 15 -18c0 -11 -8 -16 -23 -16h-149c-15 0 -23 5 -23 16
c0 7 5 13 15 18c17 11 26 18 29 23c10 19 15 54 15 107v499c0 5 -3 8 -8 8h-7c-23 0 -40 0 -51 -1c-23 -1 -55 -7 -76 -22c-13 -9 -23 -19 -30 -32c-8 -12 -16 -37 -22 -54c-6 -16 -15 -24 -26 -24c-15 0 -22 10 -22 31c1 58 3 100 5 126c1 18 12 27 35 27c3 0 21 -1 56 -4
s71 -4 109 -4h152c38 0 74 1 109 4s54 4 57 4c23 0 34 -9 35 -27c1 -9 2 -51 4 -126z" />
    <glyph glyph-name="U" unicode="U" horiz-adv-x="735" 
d="M534 714h147c19 0 28 -5 28 -15c0 -9 -8 -16 -25 -22c-29 -11 -44 -35 -51 -122c-1 -19 -2 -74 -2 -165v-130c0 -49 -6 -92 -19 -127c-37 -96 -119 -144 -244 -144c-130 0 -212 41 -245 122c-16 37 -24 89 -24 156v297c0 42 -1 69 -4 81s-10 22 -23 29
c-11 5 -27 10 -27 23c0 11 8 17 24 17h137c17 0 25 -6 25 -17c0 -13 -16 -17 -28 -23c-13 -7 -20 -16 -23 -27s-4 -36 -4 -75v-291c0 -55 6 -100 18 -133c27 -71 89 -107 186 -107c135 0 205 67 205 223c0 163 -1 261 -2 292c-4 79 -18 107 -53 120c-12 4 -24 7 -24 21
c0 11 9 17 28 17z" />
    <glyph glyph-name="V" unicode="V" horiz-adv-x="728" 
d="M718 700c0 -11 -7 -15 -21 -22c-13 -8 -27 -22 -41 -41c-12 -17 -24 -39 -35 -66c-7 -14 -31 -69 -73 -164l-121 -272l-61 -135c-2 -5 -5 -8 -9 -8h-23c-5 0 -8 3 -10 8l-219 571c-21 51 -37 82 -50 94c-7 7 -15 12 -26 17c-9 5 -14 10 -14 17c0 10 9 15 28 15h140
c14 0 21 -5 21 -16c0 -6 -5 -11 -15 -16c-17 -8 -26 -19 -26 -33c0 -11 8 -38 24 -79l176 -458c2 -5 4 -7 6 -7c1 0 3 3 6 8l159 376c31 75 47 123 47 146c0 22 -11 38 -32 47c-9 4 -14 10 -14 17c0 10 9 15 27 15h129c18 0 27 -5 27 -14z" />
    <glyph glyph-name="W" unicode="W" horiz-adv-x="1066" 
d="M896 714h130c18 0 27 -5 27 -15c0 -7 -7 -14 -22 -23c-18 -11 -32 -25 -43 -43c-9 -17 -20 -39 -31 -68c-10 -26 -45 -125 -104 -298c-59 -172 -90 -261 -91 -267c-3 -5 -6 -8 -10 -8h-20c-5 0 -9 3 -10 8l-192 586c-1 5 -7 5 -8 0l-215 -586c-3 -5 -6 -8 -10 -8h-21
c-5 0 -9 3 -10 8l-169 571c-15 51 -28 82 -39 93c-7 7 -16 12 -28 16c-9 3 -14 9 -14 17c0 11 11 17 33 17h137c14 0 21 -5 21 -16c0 -6 -5 -12 -15 -18s-28 -13 -28 -35c0 -12 5 -37 16 -75l125 -427c2 -3 3 -5 4 -5c3 0 4 1 5 4l211 571c2 5 5 8 10 8h25c5 0 8 -3 10 -8
l188 -572c1 -3 2 -4 4 -4c1 0 3 1 4 3l116 350c22 66 33 113 33 140c0 21 -10 38 -29 49c-10 5 -15 11 -15 18c0 11 8 17 25 17z" />
    <glyph glyph-name="X" unicode="X" horiz-adv-x="714" 
d="M658 34c13 -6 19 -12 19 -18c0 -11 -8 -16 -23 -16h-128c-17 0 -25 5 -25 15c0 9 27 19 27 34c0 8 -4 18 -12 29c-19 27 -78 108 -177 241c-2 3 -4 4 -6 4c-3 0 -5 -2 -7 -5c-79 -113 -126 -191 -143 -232c-4 -9 -6 -17 -6 -24c0 -10 5 -18 16 -25c4 -3 28 -11 24 -20
c0 -11 -9 -17 -26 -17h-128c-17 0 -26 5 -26 16c0 14 16 18 30 27c25 17 50 42 73 75l162 236c2 3 3 5 3 8c0 1 -1 4 -3 7l-180 245c-19 25 -31 40 -38 47c-6 7 -13 13 -22 18c-13 6 -19 12 -19 19c0 11 8 16 23 16h124c17 0 25 -5 25 -15c0 -11 -26 -21 -26 -33
c0 -8 4 -18 13 -31c12 -19 69 -97 170 -234c5 -8 9 -8 14 0c75 109 121 184 139 225c5 11 7 19 7 26c0 11 -7 20 -20 27s-19 13 -19 19c0 11 8 16 25 16h127c18 0 27 -5 27 -16c0 -14 -16 -18 -30 -27c-22 -13 -46 -38 -73 -75l-160 -232c-2 -3 -3 -5 -3 -7c0 -1 1 -3 3 -6
l171 -233c23 -32 39 -53 48 -63c9 -9 19 -16 30 -21z" />
    <glyph glyph-name="Y" unicode="Y" horiz-adv-x="674" 
d="M659 699c0 -12 -12 -12 -19 -19c-14 -8 -27 -19 -39 -32c-10 -11 -27 -36 -50 -73l-180 -294c-2 -3 -3 -7 -3 -11v-106c0 -53 5 -89 15 -106c5 -9 14 -16 27 -22c11 -5 17 -12 17 -19c0 -11 -8 -17 -23 -17h-148c-16 0 -24 5 -24 16c0 8 6 14 17 19c13 5 22 13 28 23
c10 17 15 53 15 106v83c0 5 -1 10 -4 15l-167 309c-29 53 -47 84 -55 93c-7 9 -17 15 -29 19c-9 3 -13 8 -13 15c0 11 9 16 28 16h145c14 0 21 -5 21 -15c0 -7 -7 -13 -20 -20s-20 -17 -20 -30c0 -15 11 -42 32 -83l132 -243c4 -5 6 -6 11 2l106 179c41 70 62 117 62 140
c0 40 -43 32 -43 55c0 10 8 15 25 15h127c19 0 29 -5 29 -15z" />
    <glyph glyph-name="Z" unicode="Z" horiz-adv-x="608" 
d="M545 186c15 0 23 -8 23 -25c0 -3 -4 -20 -11 -49c-5 -16 -11 -50 -16 -67c-7 -29 -19 -53 -52 -53c-5 0 -25 1 -59 4c-33 3 -68 4 -105 4h-252c-17 0 -23 4 -23 17c0 15 3 27 9 37l389 607c2 3 3 6 3 7c0 3 -2 4 -6 4h-99c-113 0 -159 -4 -188 -24
c-12 -9 -21 -18 -29 -31l-8 -16l-14 -39c-7 -16 -15 -24 -26 -24c-15 0 -22 6 -22 31c0 5 1 26 3 62v30c1 16 1 27 2 34c2 18 13 27 34 27c3 0 21 -1 56 -4s72 -4 110 -4h262c17 0 21 -3 21 -16c0 -15 -3 -26 -8 -34l-392 -611c-3 -5 -4 -8 -4 -9c0 -3 2 -4 6 -4h79
c71 0 115 1 132 4c41 6 71 16 88 30c17 15 39 43 65 85c11 18 22 27 32 27z" />
    <glyph glyph-name="bracketleft" unicode="[" horiz-adv-x="362" 
d="M319 704h-161c-7 0 -10 -3 -10 -9v-798c0 -7 3 -11 10 -11h162c7 0 10 -3 10 -9v-23c0 -7 -3 -10 -10 -10h-234c-7 0 -10 3 -10 10v883c0 7 3 10 10 10h233c7 0 11 -3 11 -10v-23c0 -7 -4 -10 -11 -10z" />
    <glyph glyph-name="backslash" unicode="\" horiz-adv-x="484" 
d="M-39 748h37c5 0 8 -2 11 -6l507 -829c1 -2 2 -4 2 -5c0 -3 -2 -5 -6 -5h-36c-5 0 -9 3 -12 8l-506 829c-1 2 -2 4 -2 5c0 2 2 3 5 3z" />
    <glyph glyph-name="bracketright" unicode="]" horiz-adv-x="362" 
d="M43 -113h160c7 0 11 3 11 10v798c0 7 -4 10 -11 10h-161c-7 0 -11 3 -11 9v23c0 7 4 10 11 10h234c7 0 10 -3 10 -10v-883c0 -7 -3 -10 -10 -10h-233c-8 0 -12 3 -12 10v23c0 7 4 10 12 10z" />
    <glyph glyph-name="asciicircum" unicode="^" horiz-adv-x="456" 
d="M104 464h-46c-5 0 -7 2 -7 6c0 1 1 4 3 7l142 240c3 6 9 9 17 9h29c8 0 14 -3 18 -9l143 -241c1 -3 2 -5 2 -6c0 -4 -2 -6 -7 -6h-46c-9 0 -15 3 -18 9l-102 172c-3 5 -5 5 -8 0l-101 -172c-4 -6 -10 -9 -19 -9z" />
    <glyph glyph-name="underscore" unicode="_" horiz-adv-x="511" 
d="M-6 -146v29c0 7 4 10 11 10h502c7 0 10 -3 10 -10v-29c0 -7 -3 -10 -10 -10h-502c-7 0 -11 3 -11 10z" />
    <glyph glyph-name="grave" unicode="`" horiz-adv-x="485" 
d="M285 614l-160 98c-4 3 -6 5 -6 7c0 5 3 7 10 7h71c15 0 28 -4 38 -13l123 -96c4 -3 6 -6 6 -7c0 -3 -2 -5 -7 -5h-43c-13 0 -23 3 -32 9z" />
    <glyph glyph-name="a" unicode="a" horiz-adv-x="517" 
d="M350 274v15c0 3 -1 4 -3 4c-1 0 -3 -1 -4 -2c-15 -12 -43 -27 -84 -45c-41 -17 -69 -31 -85 -41c-36 -23 -54 -52 -54 -89c0 -51 36 -83 87 -83c47 0 94 27 119 80c16 33 24 87 24 161zM468 56c9 0 14 -5 14 -15c0 -24 -30 -52 -63 -52c-39 0 -61 27 -66 81
c0 3 -1 4 -2 4s-2 -1 -4 -4c-32 -52 -94 -81 -158 -81c-42 0 -78 12 -109 35s-46 54 -46 93c0 42 20 77 59 104c21 15 52 29 94 44s68 24 79 29c56 26 84 62 84 107c0 52 -34 91 -91 91c-31 0 -57 -9 -80 -28c-30 -24 -55 -70 -63 -81c-6 -10 -13 -15 -21 -15
c-15 0 -22 15 -22 44c0 34 5 58 16 73c13 16 38 29 75 38c24 7 51 10 82 10c61 0 108 -18 141 -55c27 -31 41 -82 41 -155c0 -17 -1 -45 -2 -84s-1 -68 -1 -88c0 -31 0 -41 3 -64c4 -23 12 -33 25 -33c3 0 12 2 15 2z" />
    <glyph glyph-name="b" unicode="b" horiz-adv-x="590" 
d="M465 244c0 67 -14 122 -43 166s-67 66 -116 66c-87 0 -147 -81 -147 -218c0 -145 63 -229 154 -229c47 0 84 20 111 61s41 93 41 154zM543 283c0 -89 -23 -161 -70 -214s-103 -80 -169 -80c-41 0 -77 9 -108 28c-19 11 -32 22 -43 22s-18 -7 -23 -22
c-6 -19 -15 -28 -26 -28c-13 1 -20 12 -20 34v585c0 30 -3 49 -10 56c-5 6 -16 11 -32 16c-15 4 -22 10 -22 17c0 11 5 16 26 21c33 8 59 16 76 24c9 4 16 6 20 6c11 0 17 -8 17 -23v-275c0 -5 2 -7 5 -7c2 0 4 1 7 4c49 57 106 86 169 86c65 0 115 -25 150 -74
s53 -108 53 -176z" />
    <glyph glyph-name="c" unicode="c" horiz-adv-x="509" 
d="M459 84c-35 -56 -108 -96 -188 -96c-75 0 -134 29 -177 88c-30 41 -45 93 -45 156c0 96 39 194 115 251c43 33 94 50 153 50c43 0 96 -12 119 -36c12 -12 18 -35 18 -68c0 -38 -8 -57 -24 -57c-20 -6 -29 36 -46 59c-25 37 -59 55 -101 55c-40 0 -74 -17 -102 -51
c-35 -42 -53 -101 -53 -177c0 -53 11 -98 33 -134c31 -51 76 -76 136 -76c49 0 92 20 127 59c11 12 20 18 27 18c11 0 17 -6 17 -18c0 -6 -3 -14 -9 -23z" />
    <glyph glyph-name="d" unicode="d" horiz-adv-x="606" 
d="M283 47c88 0 147 77 147 217c0 145 -62 228 -154 228c-46 0 -83 -21 -110 -63c-27 -41 -41 -96 -41 -163c0 -65 15 -118 45 -159c30 -40 68 -60 113 -60zM547 57c15 -3 22 -9 22 -18s-8 -16 -25 -20c-28 -7 -51 -14 -69 -22c-13 -6 -22 -9 -27 -9c-12 0 -18 8 -18 24v61
c0 5 -1 7 -4 7c-1 0 -4 -2 -7 -5c-49 -57 -105 -86 -168 -86c-65 0 -115 24 -151 73c-35 49 -53 107 -53 176c0 81 22 150 65 208c44 58 100 87 168 87c48 0 94 -15 138 -46c3 -3 6 -4 8 -4c3 0 4 2 4 5v106c0 38 -4 61 -11 69c-6 7 -16 13 -31 17s-23 10 -23 17
c0 11 5 16 26 21c30 7 55 15 76 24c9 4 16 6 20 6c12 0 18 -8 18 -24v-593c0 -30 4 -49 11 -57c6 -7 16 -12 31 -17z" />
    <glyph glyph-name="e" unicode="e" horiz-adv-x="542" 
d="M136 329c0 -6 3 -9 9 -9h179c65 0 92 15 92 64c0 27 -11 52 -34 75c-22 23 -52 34 -89 34c-34 0 -64 -11 -89 -33c-51 -44 -68 -96 -68 -131zM489 108c0 -22 -23 -49 -70 -80c-39 -26 -84 -39 -134 -39c-68 0 -125 24 -170 71c-45 48 -67 110 -67 187s24 143 71 200
s108 86 182 86c57 0 105 -18 143 -55c37 -37 56 -79 56 -126c0 -52 -20 -72 -77 -72h-283c-7 0 -11 -3 -11 -10c0 -62 13 -112 39 -149c35 -51 80 -77 135 -77c33 0 64 8 92 25c24 15 46 38 58 50c18 18 36 6 36 -11z" />
    <glyph glyph-name="f" unicode="f" horiz-adv-x="379" 
d="M381 731c16 -13 24 -34 24 -61c0 -24 -8 -36 -23 -36c-7 0 -16 5 -25 14c-11 11 -20 20 -26 25c-11 11 -32 23 -53 23c-28 0 -50 -16 -66 -47c-12 -23 -19 -68 -20 -135c0 -6 3 -9 10 -9c29 0 50 0 63 1c8 0 21 1 40 2c19 2 32 3 39 3c19 0 28 -6 28 -17
c0 -1 -1 -6 -3 -14c-8 -24 -12 -30 -37 -30c-7 0 -18 1 -35 2c-16 2 -29 3 -38 3c-15 1 -34 1 -55 1c-8 0 -12 -4 -12 -12v-159c1 -72 1 -112 1 -121c0 -52 5 -87 15 -106c5 -9 15 -17 29 -23c10 -4 15 -10 15 -18c0 -11 -8 -17 -23 -17h-148c-15 0 -23 5 -23 16
c0 7 5 14 15 19c16 10 26 18 29 23c10 15 15 51 15 106c0 13 0 56 -1 129v153c0 7 -3 10 -10 10h-60c-7 0 -11 3 -11 9v29c0 7 4 11 11 11h62c5 0 9 3 10 9c3 55 14 98 31 131c35 61 101 103 173 103c26 0 46 -6 59 -17z" />
    <glyph glyph-name="g" unicode="g" horiz-adv-x="539" 
d="M248 493c-63 0 -103 -55 -103 -127c0 -46 11 -85 33 -118c23 -32 52 -48 87 -48c63 0 103 54 103 129c0 96 -51 164 -120 164zM390 76c67 -12 109 -49 109 -105c0 -93 -90 -164 -247 -164c-87 0 -149 16 -188 49c-25 21 -37 46 -37 76c0 24 9 45 26 62c15 15 31 22 48 22
c13 0 20 -5 20 -15c0 -3 -3 -10 -9 -21c-8 -13 -12 -27 -12 -43c0 -21 10 -40 31 -56c29 -22 74 -33 133 -33c97 0 170 42 170 99c0 35 -32 56 -96 62c-9 1 -24 3 -46 4c-43 4 -79 7 -106 14c-51 12 -76 36 -76 73c0 35 21 61 62 78c-67 31 -108 91 -108 166
c0 53 18 97 55 134s83 55 140 55c45 0 88 -14 127 -43c6 -4 11 -6 16 -6c25 0 25 51 64 51c21 0 36 -15 36 -40c0 -32 -22 -48 -66 -48c-6 0 -11 0 -15 1c17 -27 26 -58 26 -93c0 -109 -69 -187 -181 -194c-19 -1 -32 -2 -37 -3c-33 -3 -49 -14 -49 -32c0 -21 19 -29 74 -36
c1 0 19 -2 54 -5c36 -3 63 -6 82 -9z" />
    <glyph glyph-name="h" unicode="h" horiz-adv-x="612" 
d="M559 35c11 -5 16 -11 16 -18c0 -11 -8 -17 -25 -17h-148c-16 0 -24 6 -24 17c0 7 5 13 15 18c14 6 24 14 29 23c11 18 16 54 16 107v170c0 87 -40 134 -116 134c-37 0 -67 -12 -91 -36c-20 -20 -33 -48 -39 -83s-9 -97 -9 -185c0 -53 5 -89 16 -107c5 -8 14 -16 29 -23
c10 -5 15 -11 15 -18c0 -11 -8 -17 -24 -17h-147c-16 0 -24 6 -24 17c0 7 5 13 15 18c15 7 25 14 30 23c11 18 16 54 16 107v410c0 49 -4 78 -12 88c-5 6 -15 11 -32 16c-14 4 -21 10 -21 18c0 10 8 17 25 21c27 6 53 14 77 25c6 3 12 4 17 4c13 0 20 -8 20 -23v-279
c0 -7 3 -7 7 0c39 59 93 88 162 88c51 0 91 -17 121 -50c28 -31 42 -79 42 -146v-172c0 -55 5 -90 15 -107c5 -9 15 -17 29 -23z" />
    <glyph glyph-name="i" unicode="i" horiz-adv-x="292" 
d="M212 686c0 -11 -8 -24 -24 -40c-15 -15 -28 -23 -39 -23c-10 0 -23 8 -39 24c-15 16 -23 29 -23 39c0 9 8 22 23 38c16 16 29 24 39 24c11 0 24 -8 39 -24c16 -15 24 -28 24 -38zM234 34c10 -6 15 -12 15 -17c0 -11 -8 -17 -23 -17h-149c-15 0 -23 6 -23 17
c0 6 5 12 15 17c15 8 24 16 29 24c10 15 15 50 15 107v228c0 29 -3 47 -10 55c-6 7 -16 13 -31 16c-15 4 -23 10 -23 18c0 11 4 16 27 21c29 7 55 15 79 25c8 3 14 5 17 5c12 0 18 -8 18 -24v-344c0 -56 5 -92 15 -107c5 -9 15 -17 29 -24z" />
    <glyph glyph-name="j" unicode="j" horiz-adv-x="302" 
d="M201 509v-231c1 -104 1 -171 1 -201c0 -81 -16 -145 -49 -190c-39 -52 -92 -78 -157 -78c-60 0 -84 25 -84 82c0 21 8 31 23 31c9 0 18 -5 27 -15c28 -31 54 -47 79 -47c29 0 50 15 65 45c13 26 20 79 20 159l-1 316c0 36 -4 59 -11 68c-5 7 -16 12 -31 16s-22 10 -22 18
c0 11 3 16 26 21c31 7 57 16 79 25c8 3 14 5 17 5c12 0 18 -8 18 -24zM223 686c0 -11 -8 -24 -24 -40c-15 -15 -28 -23 -38 -23c-11 0 -24 8 -40 24c-15 16 -23 29 -23 39c0 9 8 22 24 38s29 24 40 24c10 0 23 -8 38 -24c15 -15 23 -28 23 -38z" />
    <glyph glyph-name="k" unicode="k" horiz-adv-x="595" 
d="M550 35c14 -5 21 -11 21 -18c0 -11 -8 -17 -23 -17h-61c-20 0 -36 6 -49 18c-15 13 -47 54 -96 121c-33 46 -56 76 -69 90c-13 15 -23 22 -30 22c-5 0 -13 -5 -24 -14l-29 -25c-3 -3 -4 -7 -4 -13v-19c0 -64 5 -104 16 -121c5 -9 15 -17 29 -24c11 -6 16 -12 16 -19
c0 -11 -8 -16 -25 -16h-150c-17 0 -25 5 -25 16c0 7 5 14 15 19c17 10 27 18 31 24c10 15 15 52 15 109v440c0 27 -4 45 -12 53c-5 5 -15 11 -32 17c-14 5 -21 11 -21 18c0 11 9 18 27 22c31 7 58 15 80 24c6 3 12 4 17 4c13 0 19 -7 19 -22v-454c0 -3 1 -4 3 -4
c1 0 3 1 6 4l119 105c27 25 32 30 47 47c16 17 20 27 20 36c0 10 -6 19 -17 26s-17 14 -17 21c0 11 10 17 29 17h157c17 0 25 -6 25 -17c0 -16 -22 -19 -39 -26c-16 -7 -33 -18 -48 -27c-15 -8 -39 -28 -52 -39c-7 -5 -17 -13 -30 -25l-30 -26c-6 -6 -17 -17 -34 -32
s-29 -25 -36 -32c-3 -3 -4 -5 -4 -7c0 -3 2 -5 5 -5s10 5 15 5c23 0 47 -30 103 -110c37 -53 66 -90 85 -109c20 -19 39 -32 57 -37z" />
    <glyph glyph-name="l" unicode="l" horiz-adv-x="287" 
d="M228 34c10 -6 15 -12 15 -17c0 -11 -8 -17 -23 -17h-149c-15 0 -23 6 -23 17c0 6 5 12 15 17c15 8 24 16 29 24c10 15 15 50 15 107v442c0 29 -3 47 -10 55c-6 7 -16 13 -31 16c-15 4 -23 10 -23 18c0 11 4 16 27 21c29 7 55 15 79 25c8 3 14 5 17 5c12 0 18 -8 18 -24
v-558c0 -56 5 -92 15 -107c5 -9 15 -17 29 -24z" />
    <glyph glyph-name="m" unicode="m" horiz-adv-x="928" 
d="M875 34c11 -5 16 -11 16 -18c0 -11 -8 -16 -24 -16h-147c-16 0 -24 5 -24 16c0 7 5 13 15 18c14 6 24 14 30 24c10 17 15 52 15 107v168c0 49 -13 86 -38 109c-20 19 -46 28 -77 28c-36 0 -66 -13 -89 -38c-17 -19 -29 -47 -34 -82s-8 -96 -8 -185c0 -53 5 -89 16 -107
c5 -8 14 -16 29 -24c10 -5 15 -11 15 -18c0 -11 -8 -16 -24 -16h-147c-16 0 -24 5 -24 16c0 7 5 13 16 18c14 7 24 15 29 24c10 17 15 52 15 107v168c0 56 -12 94 -37 114c-18 15 -41 22 -68 22c-36 0 -66 -12 -91 -37c-19 -20 -33 -48 -40 -85s-10 -97 -10 -182
c0 -57 5 -92 15 -107c5 -8 15 -16 29 -24c10 -5 15 -11 15 -18c0 -11 -8 -16 -23 -16h-147c-16 0 -24 5 -24 16c0 7 5 13 15 18c13 6 23 14 30 24c10 15 15 51 15 107v206c0 43 -4 68 -11 77c-5 6 -16 11 -32 16c-14 4 -21 10 -21 18c0 11 8 18 25 22c26 6 52 14 77 25
c6 3 12 4 17 4c13 0 20 -8 20 -24v-66c0 -2 1 -3 2 -3s2 1 4 4c40 59 94 89 162 89c73 0 123 -38 144 -90c1 -5 4 -5 8 0c41 60 94 90 161 90c60 0 105 -24 136 -73c17 -27 25 -69 25 -125v-170c0 -55 5 -90 15 -107c5 -8 14 -16 29 -24z" />
    <glyph glyph-name="n" unicode="n" horiz-adv-x="617" 
d="M564 35c11 -5 16 -11 16 -18c0 -11 -8 -17 -25 -17h-148c-16 0 -24 6 -24 17c0 7 5 13 15 18c14 6 24 14 29 23c11 18 16 54 16 107v170c0 87 -40 134 -116 134c-37 0 -67 -12 -91 -36c-20 -20 -33 -48 -39 -83s-9 -97 -9 -185c0 -53 5 -89 16 -107c5 -8 14 -16 29 -23
c10 -5 15 -11 15 -18c0 -11 -8 -17 -24 -17h-147c-16 0 -24 6 -24 17c0 7 5 13 15 18c15 7 25 14 30 23c11 18 16 54 16 107v196c0 49 -4 78 -12 88c-5 6 -15 11 -32 16c-14 4 -21 10 -21 18c0 10 8 17 25 21c27 6 53 14 77 25c6 3 12 4 17 4c13 0 20 -8 20 -23v-65
c0 -7 3 -7 7 0c39 59 93 88 162 88c51 0 91 -17 121 -50c28 -31 42 -79 42 -146v-172c0 -55 5 -90 15 -107c5 -9 15 -17 29 -23z" />
    <glyph glyph-name="o" unicode="o" horiz-adv-x="590" 
d="M462 234c0 52 -9 100 -28 144c-19 45 -45 77 -80 96c-23 13 -46 19 -68 19c-27 0 -53 -7 -77 -22c-53 -35 -80 -94 -80 -177c0 -71 16 -133 49 -185s75 -78 128 -78c49 0 88 21 117 62c26 37 39 84 39 141zM296 533c77 0 138 -25 181 -76s65 -115 65 -193
c0 -77 -23 -142 -70 -195c-46 -53 -105 -80 -176 -80c-75 0 -136 24 -181 73s-67 114 -67 196c0 77 23 142 70 195s106 80 178 80z" />
    <glyph glyph-name="p" unicode="p" horiz-adv-x="605" 
d="M326 31c36 0 66 11 89 32c44 41 66 101 66 180c0 37 -5 72 -14 105s-27 63 -52 88c-25 26 -56 39 -93 39c-87 0 -146 -78 -146 -217c0 -144 63 -227 150 -227zM355 533c65 0 115 -25 150 -74s53 -107 53 -176c0 -79 -21 -146 -62 -203c-43 -61 -100 -91 -169 -91
c-51 0 -99 16 -143 49c-2 1 -4 2 -5 2c-2 0 -3 -2 -3 -6v-62c0 -54 5 -89 16 -106c5 -9 15 -17 28 -24c11 -6 16 -12 16 -19c0 -11 -8 -16 -23 -16h-148c-15 0 -23 5 -23 16c0 7 5 13 15 18c14 7 24 16 29 25c10 16 15 50 15 103v423c0 29 -3 47 -10 55c-6 7 -17 12 -32 17
s-22 11 -22 18c0 11 5 16 26 21c29 7 55 15 78 25c8 3 14 5 17 5c12 0 18 -8 18 -24v-59c0 -5 2 -7 6 -7c2 0 4 1 6 3c48 58 104 87 167 87z" />
    <glyph glyph-name="q" unicode="q" horiz-adv-x="584" 
d="M285 48c85 0 146 78 146 217c0 144 -62 228 -155 228c-89 0 -151 -87 -151 -228c0 -63 15 -115 45 -156s68 -61 115 -61zM549 -158c11 -5 16 -11 16 -18c0 -11 -8 -17 -23 -17h-148c-15 0 -23 6 -23 17c0 7 5 12 15 17c13 7 23 15 29 25c11 18 16 53 16 106v101
c0 5 -2 8 -5 8c-2 0 -4 -2 -7 -5c-48 -58 -103 -87 -166 -87c-67 0 -118 24 -153 72c-35 49 -52 109 -52 181c0 83 22 152 67 207c45 56 102 84 171 84c42 0 78 -10 109 -29c21 -10 29 -22 42 -22c9 0 17 8 23 23c8 21 13 29 26 29c13 -1 20 -13 20 -36v-526
c0 -55 5 -91 15 -106c6 -9 15 -17 28 -24z" />
    <glyph glyph-name="r" unicode="r" horiz-adv-x="390" 
d="M326 533c40 0 57 -27 57 -58c0 -27 -9 -40 -28 -40c-16 0 -41 21 -62 21c-26 0 -48 -15 -67 -45c-13 -23 -22 -51 -27 -84c-4 -33 -6 -87 -6 -163c0 -53 5 -89 15 -106c4 -7 14 -14 29 -23c10 -5 15 -11 15 -19c0 -11 -8 -16 -23 -16h-148c-15 0 -23 5 -23 16
c0 7 5 14 15 19c15 7 26 16 31 27c9 17 14 51 14 102c0 62 -1 199 -1 198c0 47 -5 75 -14 85c-5 6 -16 12 -31 17s-22 11 -22 19c0 12 5 17 25 22c22 5 44 12 66 21c9 4 16 6 23 6c13 0 20 -8 20 -24v-81c0 -2 1 -3 2 -3s2 1 3 4c12 24 31 47 56 70c26 23 53 35 81 35z" />
    <glyph glyph-name="s" unicode="s" horiz-adv-x="475" 
d="M67 172c19 0 24 -15 53 -62c33 -53 77 -79 130 -79c60 0 109 37 109 94c0 33 -15 59 -48 76c-33 19 -51 25 -99 38c-87 25 -145 64 -145 141c0 47 19 84 57 111c39 28 85 42 139 42c50 0 87 -10 111 -29c19 -15 28 -41 28 -77s-9 -54 -27 -54c-9 0 -16 6 -23 17l-10 17
c-11 20 -13 26 -29 43c-19 23 -44 39 -85 39c-51 0 -90 -35 -90 -83c-3 -30 17 -50 33 -64c9 -8 36 -18 47 -22l27 -9l26 -7c48 -15 74 -26 107 -50c33 -23 50 -57 50 -102c0 -51 -27 -103 -78 -132c-36 -21 -77 -31 -122 -31c-67 0 -132 23 -157 50c-17 21 -26 52 -26 95
c0 25 7 38 22 38z" />
    <glyph glyph-name="t" unicode="t" horiz-adv-x="415" 
d="M365 100c11 0 16 -5 16 -14c0 -5 -3 -13 -8 -22c-25 -40 -74 -75 -137 -75c-47 0 -82 18 -104 55c-15 25 -22 64 -22 115c0 26 1 71 3 134c2 64 3 115 3 152c0 7 -3 11 -10 11h-62c-7 0 -11 3 -11 10v28c0 5 3 8 8 10c31 10 53 22 65 36c9 11 13 19 16 36l4 14
c3 7 8 34 9 42c1 7 5 10 11 10h33c7 0 10 -3 10 -10v-107c0 -15 5 -20 22 -20c19 0 36 0 53 1c7 0 20 1 39 2c19 2 32 3 39 3c19 0 28 -5 28 -16c0 -4 -3 -12 -3 -15c-5 -24 -14 -29 -42 -29c-13 0 -53 4 -69 4c-15 1 -33 1 -55 1c-8 0 -12 -4 -12 -13
c-1 -23 -2 -81 -2 -175c0 -85 5 -140 14 -165c11 -31 34 -47 67 -47c48 0 86 44 97 44z" />
    <glyph glyph-name="u" unicode="u" horiz-adv-x="613" 
d="M570 39c0 -10 -8 -17 -24 -21c-27 -6 -52 -14 -74 -24c-8 -4 -15 -6 -21 -6c-13 0 -20 8 -20 25v65c0 4 -3 4 -6 0c-33 -53 -94 -89 -163 -89c-53 0 -94 17 -121 50c-26 31 -39 80 -39 147v194c0 36 -4 59 -11 68c-5 6 -15 11 -32 16c-14 4 -21 10 -21 18
c0 11 8 19 24 22c23 5 49 13 76 24c7 3 14 4 19 4c13 0 20 -8 20 -24v-323c0 -81 35 -134 112 -134c37 0 68 12 92 36c19 19 32 47 39 84s11 99 11 184c0 52 -4 83 -11 93c-5 6 -15 11 -32 16c-14 4 -21 10 -21 19c0 11 8 18 24 21c22 5 47 13 76 24c7 3 13 4 18 4
c14 0 21 -8 21 -24v-367c0 -36 4 -59 11 -68c5 -7 16 -12 32 -16c14 -4 21 -10 21 -18z" />
    <glyph glyph-name="v" unicode="v" horiz-adv-x="574" 
d="M561 507c0 -11 -9 -17 -21 -23c-16 -10 -30 -24 -43 -42c-12 -17 -24 -40 -36 -68l-159 -374c-2 -5 -6 -7 -11 -7h-38c-7 0 -11 2 -12 7l-134 374c-17 50 -33 82 -48 97c-7 7 -16 13 -28 18c-9 4 -14 10 -14 17c0 11 10 16 30 16h145c15 0 23 -5 23 -15
c0 -18 -46 -21 -46 -59c0 -15 6 -40 19 -75l101 -281c3 -7 5 -7 8 0l77 197c31 79 46 128 46 149c0 55 -48 43 -48 68c0 11 9 16 27 16h133c19 0 29 -5 29 -15z" />
    <glyph glyph-name="w" unicode="w" horiz-adv-x="889" 
d="M873 506c0 -12 -12 -12 -21 -21c-16 -9 -29 -21 -39 -34c-14 -19 -27 -44 -39 -77c-7 -17 -51 -142 -132 -375c-1 -4 -4 -6 -9 -6h-43c-5 0 -8 2 -9 6l-141 419c-1 3 -5 3 -6 0l-158 -417c-2 -5 -6 -8 -12 -8h-40c-6 0 -10 3 -12 8l-108 373c-15 49 -30 82 -45 97
c-5 5 -15 11 -28 18c-9 4 -14 10 -14 18c0 10 10 15 30 15h145c15 0 23 -5 23 -16c0 -22 -47 -16 -47 -59c0 -15 5 -39 16 -74l79 -273c1 -3 2 -4 3 -4c2 0 3 1 4 3l160 423c1 5 4 7 9 7h38c4 0 6 -1 7 -4l144 -425c1 -3 2 -4 3 -4c2 0 3 1 4 4l64 190c25 75 37 123 37 144
c0 59 -50 47 -50 72c0 11 9 16 27 16h132c19 0 28 -5 28 -16z" />
    <glyph glyph-name="x" unicode="x" horiz-adv-x="578" 
d="M504 51c21 -16 52 -23 47 -35c0 -11 -8 -16 -24 -16h-131c-18 0 -27 5 -27 15c0 6 5 12 15 17s15 11 15 16s-2 11 -7 18c-17 26 -56 78 -118 157c-2 2 -4 3 -5 3s-2 -1 -4 -3c-43 -60 -72 -104 -87 -132c-7 -12 -10 -22 -10 -29c0 -10 6 -19 19 -26s20 -14 20 -19
c0 -11 -8 -17 -25 -17h-128c-18 0 -27 6 -27 17c-5 11 23 22 32 27c23 15 49 40 78 76c24 29 58 75 102 137c4 7 4 8 0 13l-87 114c-37 47 -64 77 -79 89c-22 17 -44 18 -44 33c0 11 8 16 24 16h130c17 0 25 -5 25 -15c0 -11 -25 -20 -25 -32c0 -5 3 -13 9 -23
c19 -29 57 -80 114 -151c4 -4 6 -4 10 1c47 67 76 113 87 138c4 9 6 17 6 22c0 11 -7 19 -20 25s-19 12 -19 18c0 11 9 17 26 17h128c17 0 26 -5 26 -16c-1 -14 -17 -18 -32 -27c-19 -11 -45 -37 -76 -76s-65 -85 -102 -136c-4 -7 -4 -5 0 -12l87 -116c37 -48 62 -77 77 -88
z" />
    <glyph glyph-name="y" unicode="y" horiz-adv-x="563" 
d="M550 507c0 -11 -7 -16 -20 -22c-16 -11 -30 -25 -42 -42c-9 -13 -21 -35 -35 -67l-147 -351c-42 -101 -86 -166 -132 -195c-24 -15 -48 -23 -72 -23c-43 0 -69 25 -69 69c0 26 10 39 30 39c7 0 18 -6 32 -19c15 -13 29 -19 43 -19c19 0 38 12 58 36c20 23 36 49 47 78
c4 11 4 10 1 18l-140 367c-22 55 -38 87 -47 96c-5 5 -14 11 -27 18c-9 5 -14 11 -14 16c0 11 10 16 29 16h143c15 0 22 -5 22 -16c0 -18 -44 -19 -44 -57c0 -16 6 -40 18 -72c9 -25 44 -115 104 -268c1 -2 2 -3 3 -3c2 0 3 1 4 3l76 195c28 75 42 120 42 135
c0 50 -48 44 -48 67c0 11 9 16 26 16h131c19 0 28 -5 28 -15z" />
    <glyph glyph-name="z" unicode="z" horiz-adv-x="491" 
d="M430 173c15 0 23 -7 23 -22c0 -4 -2 -15 -7 -32c-3 -11 -7 -27 -11 -46s-7 -34 -10 -43c-4 -17 -21 -37 -49 -37c-2 0 -19 1 -52 4c-32 2 -67 3 -105 3h-156c-17 0 -22 3 -22 19c0 17 2 29 7 35l295 418c3 3 4 6 4 7c0 3 -2 4 -7 4h-95c-39 0 -67 -2 -82 -6
c-32 -8 -44 -28 -63 -75c-7 -18 -16 -27 -27 -27c-15 0 -23 10 -23 29c0 16 1 43 1 48c0 20 1 37 2 51c1 17 12 26 33 26c3 0 22 -1 58 -4c36 -2 74 -3 114 -3h162c14 0 21 -4 21 -12c0 -13 -3 -25 -10 -35l-297 -424c-2 -3 -3 -5 -3 -6c0 -3 2 -4 5 -4c48 0 87 0 117 1
c39 1 66 7 82 18s35 37 58 77c17 29 25 36 37 36z" />
    <glyph glyph-name="braceleft" unicode="{" horiz-adv-x="358" 
d="M48 275c-7 1 -11 6 -11 13v16c0 7 3 11 10 12c73 12 93 39 93 99c0 11 -2 36 -6 76c-3 40 -5 71 -5 92c0 112 48 162 176 165c9 0 13 -3 13 -9v-20c0 -6 -3 -9 -9 -9c-81 -4 -111 -43 -111 -123c0 -18 2 -46 6 -84s6 -65 6 -80c0 -67 -22 -107 -90 -124
c-3 -1 -4 -2 -4 -3c0 -2 1 -3 4 -4c68 -17 90 -58 90 -123c0 -15 -2 -41 -6 -80c-4 -38 -6 -66 -6 -84c0 -80 30 -119 111 -122c6 0 9 -3 9 -10v-20c0 -6 -4 -9 -12 -9c-129 1 -177 53 -177 165c0 21 2 52 5 92c4 41 6 66 6 77c0 59 -20 85 -92 97z" />
    <glyph glyph-name="bar" unicode="|" horiz-adv-x="258" 
d="M114 873h30c7 0 10 -3 10 -9v-1046c0 -7 -3 -11 -10 -11h-30c-7 0 -11 4 -11 11v1046c0 6 4 9 11 9z" />
    <glyph glyph-name="braceright" unicode="}" horiz-adv-x="358" 
d="M310 317c7 -1 11 -6 11 -13v-16c0 -7 -3 -11 -10 -12c-73 -12 -93 -39 -93 -99c0 -11 2 -36 5 -76c4 -40 6 -71 6 -92c0 -112 -48 -162 -176 -165c-9 0 -13 3 -13 9v20c0 6 3 9 9 9c81 4 111 43 111 123c0 18 -2 46 -6 84s-6 65 -6 80c0 67 22 107 90 124c3 1 4 2 4 3
c0 2 -1 3 -4 4c-68 17 -90 58 -90 123c0 15 2 41 6 79c4 39 6 67 6 85c0 80 -30 119 -111 122c-6 0 -9 3 -9 10v20c0 6 4 9 12 9c129 -1 177 -53 177 -165c0 -21 -2 -52 -6 -93c-3 -40 -5 -65 -5 -76c0 -59 20 -85 92 -97z" />
    <glyph glyph-name="asciitilde" unicode="~" horiz-adv-x="644" 
d="M561 376l13 -4c6 -2 9 -5 9 -8c0 -2 0 -4 -1 -6c-28 -82 -73 -123 -134 -123c-31 0 -80 13 -146 39c-59 23 -99 34 -120 34c-33 0 -61 -22 -82 -65c-3 -5 -7 -8 -11 -8c-1 0 -3 0 -5 1l-16 5c-5 2 -8 5 -8 9c0 2 0 4 1 6c29 85 71 123 135 123c29 0 66 -9 113 -27
c75 -30 127 -45 156 -45c37 0 59 18 79 62c3 6 6 9 9 9c1 0 4 -1 8 -2z" />
    <glyph glyph-name="uni00A0" unicode="&#xa0;" horiz-adv-x="213" 
 />
    <glyph glyph-name="exclamdown" unicode="&#xa1;" horiz-adv-x="333" 
d="M82 475c0 11 9 25 26 42s31 26 42 26s26 -9 43 -26c18 -17 27 -31 27 -42s-9 -26 -27 -44c-17 -17 -32 -26 -43 -26s-25 9 -42 26c-17 18 -26 33 -26 44zM181 212c1 -25 4 -77 10 -156c6 -78 9 -134 9 -169c1 -50 -4 -76 -50 -80c-41 0 -49 26 -49 81c0 35 3 91 9 169
s9 130 10 155c0 68 -1 105 30 105c33 0 31 -37 31 -105z" />
    <glyph glyph-name="cent" unicode="&#xa2;" horiz-adv-x="530" 
d="M463 125c11 0 16 -6 16 -18c0 -20 -19 -44 -56 -72s-75 -43 -116 -45v-79c0 -5 -3 -8 -8 -8h-24c-5 0 -8 3 -8 8v78c-62 4 -112 28 -150 73c-37 45 -56 102 -56 170c0 72 19 136 58 192s89 90 148 102v90c0 5 3 7 8 7h24c5 0 8 -2 8 -7v-84c3 1 9 1 16 1
c59 0 101 -12 125 -36c13 -13 19 -35 19 -68c0 -38 -8 -57 -25 -57c-23 -6 -28 42 -59 75c-23 26 -52 39 -85 39c-112 0 -157 -124 -157 -226c0 -144 73 -212 169 -212c44 0 86 20 127 59c13 12 22 18 26 18z" />
    <glyph glyph-name="sterling" unicode="&#xa3;" horiz-adv-x="596" 
d="M495 113c13 0 19 -6 19 -17s-11 -33 -15 -45c-7 -25 -15 -42 -25 -50c-9 -8 -29 -12 -59 -12c-25 0 -61 5 -86 10c-13 1 -47 12 -58 13l-32 9l-30 9c-66 19 -105 29 -118 29c-19 0 -35 -15 -42 -15c-9 0 -17 7 -17 16c0 7 6 17 17 31s27 21 47 21c27 0 78 -11 80 -11
c3 0 6 1 9 2c55 23 83 57 83 102c0 21 -6 47 -19 78h-107c-5 0 -7 3 -7 8v24c0 5 2 7 7 7h90l-25 45c-27 51 -39 81 -39 117c0 43 17 77 51 102c35 25 74 38 117 38c37 0 66 -7 85 -20c15 -9 23 -27 23 -54c0 -35 -9 -52 -26 -52c-15 0 -21 6 -37 34c-21 36 -46 54 -74 54
c-21 0 -39 -7 -53 -20c-27 -27 -30 -61 9 -136l54 -108h138c5 0 8 -2 8 -7v-24c0 -5 -3 -8 -8 -8h-124c5 -18 8 -35 8 -50c0 -72 -50 -118 -107 -138c-4 -1 -6 -3 -6 -4s2 -2 6 -3c76 -14 131 -21 166 -21c40 0 52 6 71 26c11 11 15 20 26 20z" />
    <glyph glyph-name="currency" unicode="&#xa4;" horiz-adv-x="746" 
d="M546 145l114 -115c2 -2 3 -4 3 -6c0 -1 -1 -3 -3 -5l-17 -17c-2 -2 -4 -3 -6 -3c-1 0 -3 1 -5 3l-115 115c-42 -35 -90 -52 -145 -52s-103 17 -145 52l-116 -115c-2 -2 -4 -3 -5 -3c-2 0 -4 1 -6 3l-17 17c-2 2 -3 4 -3 5c0 2 1 4 3 6l115 115c-37 41 -55 89 -55 145
c0 55 18 104 55 146l-114 114c-3 3 -4 5 -4 7c0 1 1 3 4 6l16 16c2 2 4 3 6 3c1 0 3 -1 5 -3l116 -116c41 35 89 52 145 52s104 -17 145 -52l115 116c2 2 4 3 6 3c1 0 3 -1 5 -3l17 -17c2 -2 3 -4 3 -5c0 -2 -1 -4 -3 -6l-114 -115c36 -43 54 -91 54 -146
c0 -57 -18 -105 -54 -145zM262 179c31 -31 67 -46 110 -46s79 15 109 46c31 31 46 68 46 111s-15 80 -46 111c-30 31 -66 46 -109 46s-79 -15 -110 -46c-30 -31 -45 -68 -45 -111s15 -80 45 -111z" />
    <glyph glyph-name="yen" unicode="&#xa5;" horiz-adv-x="690" 
d="M607 605c0 -13 -9 -10 -17 -18c-12 -7 -23 -16 -33 -27c-9 -11 -24 -32 -43 -63l-78 -127l-2 -4c0 -2 2 -3 5 -3h116c4 0 6 -2 6 -6v-25c0 -4 -2 -6 -7 -6h-139c-5 0 -8 -2 -10 -5l-44 -72c-1 -2 -2 -4 -2 -5c0 -2 2 -3 5 -3h190c5 0 7 -2 7 -6v-25c0 -5 -2 -7 -7 -7
h-195c-3 0 -5 -2 -5 -5v-56c0 -48 4 -79 13 -92c5 -8 13 -14 24 -19c9 -4 14 -9 14 -16c0 -10 -7 -15 -20 -15h-132c-13 0 -19 5 -19 14c0 7 4 12 13 16c11 5 19 12 24 20c9 14 13 45 13 92v55c0 4 -2 6 -6 6h-184c-4 0 -6 2 -6 7v24c0 5 2 7 6 7h172c4 0 6 1 6 4
c0 1 -1 2 -2 5l-37 70c-2 4 -6 6 -12 6h-128c-3 0 -5 2 -5 6v26c0 3 2 5 5 5h108c3 0 5 1 5 4c0 1 -1 3 -2 5l-66 122c-24 45 -40 72 -47 80c-7 7 -15 13 -25 17c-8 3 -12 8 -12 13c0 9 8 13 23 13h126c13 0 19 -4 19 -13c0 -5 -6 -10 -18 -17c-11 -6 -17 -14 -17 -25
c0 -13 9 -37 28 -72l113 -210c1 -3 3 -5 5 -5c1 0 3 1 4 4l93 156c36 60 54 101 54 123c0 13 -6 22 -19 28s-19 12 -19 18c0 9 7 13 22 13h114c17 0 25 -4 25 -12z" />
    <glyph glyph-name="brokenbar" unicode="&#xa6;" horiz-adv-x="258" 
d="M114 873h30c7 0 10 -3 10 -9v-464c0 -6 -3 -9 -10 -9h-30c-7 0 -11 3 -11 9v464c0 6 4 9 11 9zM114 290h30c7 0 10 -3 10 -10v-462c0 -7 -3 -11 -10 -11h-30c-7 0 -11 4 -11 11v462c0 7 4 10 11 10z" />
    <glyph glyph-name="section" unicode="&#xa7;" horiz-adv-x="529" 
d="M247 389c-76 0 -115 -46 -115 -97c0 -31 13 -57 39 -77c26 -19 57 -29 93 -29c67 0 114 39 114 99c0 31 -14 56 -41 75s-57 29 -90 29zM315 143c84 -39 126 -92 126 -159c0 -55 -29 -108 -82 -143c-34 -22 -74 -33 -119 -33c-68 0 -134 27 -161 59c-16 20 -24 51 -24 94
c0 23 9 34 26 34c10 0 20 -10 31 -30c41 -74 89 -111 146 -111c65 0 116 48 116 105c0 28 -15 54 -31 70c-8 9 -20 18 -37 27c-17 10 -30 17 -41 22l-48 21c-96 41 -153 92 -153 173c0 67 48 128 119 151c3 1 4 2 4 4c0 1 -1 2 -3 3c-73 35 -110 86 -110 154
c0 46 18 85 55 116c37 32 80 48 130 48c49 0 89 -12 120 -37c22 -16 33 -41 33 -76c0 -44 -5 -61 -25 -61c-11 0 -19 8 -26 23c-10 24 -19 42 -26 55c-15 25 -45 50 -88 50c-59 0 -101 -44 -101 -97c-4 -33 20 -60 37 -77c9 -9 45 -27 54 -32l33 -14l31 -12
c93 -39 140 -94 140 -164c0 -52 -26 -102 -73 -133c-15 -10 -33 -18 -52 -24c-2 -1 -3 -2 -3 -3s1 -2 2 -3z" />
    <glyph glyph-name="dieresis" unicode="&#xa8;" horiz-adv-x="491" 
d="M296 638c-5 5 -8 16 -8 34c0 35 7 42 42 42c16 0 27 -3 34 -8c5 -5 7 -17 7 -34c0 -18 -2 -29 -7 -34c-7 -5 -18 -8 -35 -8s-28 3 -33 8zM127 638c-5 5 -8 16 -8 34c0 35 7 42 42 42c16 0 27 -3 34 -8c5 -7 8 -18 8 -35s-3 -28 -8 -33c-7 -5 -18 -8 -35 -8s-28 3 -33 8z
" />
    <glyph glyph-name="copyright" unicode="&#xa9;" horiz-adv-x="940" 
d="M240 588c-64 -64 -96 -141 -96 -231s32 -167 96 -232c64 -64 141 -96 230 -96s166 32 230 96c64 65 96 142 96 232s-32 167 -96 231s-141 96 -230 96s-166 -32 -230 -96zM470 726c101 0 188 -36 260 -109c73 -72 109 -159 109 -260s-36 -188 -109 -260
c-72 -72 -159 -108 -260 -108c-102 0 -189 36 -261 108s-108 159 -108 260s36 188 108 260c72 73 159 109 261 109zM629 289c11 0 17 -9 17 -27c0 -51 -10 -78 -42 -91c-29 -12 -63 -18 -102 -18c-77 0 -136 20 -178 61c-41 41 -62 91 -62 150c0 58 22 107 67 147
c45 41 101 61 170 62c43 0 78 -6 104 -17c29 -12 33 -29 33 -78c0 -28 -5 -33 -18 -33c-17 -5 -24 32 -46 57c-22 26 -50 39 -85 39c-46 0 -84 -17 -114 -50c-29 -33 -44 -75 -44 -125c0 -53 16 -97 47 -130s69 -50 113 -50c39 0 71 15 94 46c21 27 30 62 46 57z" />
    <glyph glyph-name="ordfeminine" unicode="&#xaa;" horiz-adv-x="396" 
d="M250 539v11c0 2 -1 3 -2 3s-2 -1 -3 -2c-11 -9 -29 -20 -54 -31s-42 -20 -51 -27c-19 -13 -28 -30 -28 -49c0 -33 26 -56 58 -56c30 0 52 14 67 43c9 18 13 54 13 108zM348 397c29 0 3 -55 -42 -55c-27 0 -47 20 -50 56c0 2 -1 3 -2 3l-3 -4c-25 -37 -60 -55 -107 -55
c-28 0 -53 9 -75 26c-22 18 -33 40 -33 67c0 31 14 57 43 77c13 9 33 18 60 27l54 21c38 17 57 42 57 74s-20 57 -55 57c-21 0 -42 -10 -61 -31c-25 -28 -35 -63 -55 -58c-14 0 -21 12 -21 37c0 24 4 41 12 52c17 23 75 35 116 35c81 0 134 -45 134 -120c0 -16 0 -45 -1 -87
c-1 -41 -1 -71 -1 -88c0 -23 7 -35 21 -35c1 0 6 1 9 1zM226 151c-7 -5 -18 -8 -34 -8c-33 0 -41 8 -41 41c0 16 3 27 8 34c5 5 16 7 33 7s29 -2 34 -7s7 -17 7 -34s-2 -28 -7 -33z" />
    <glyph glyph-name="guillemotleft" unicode="&#xab;" horiz-adv-x="559" 
d="M477 104v-45c0 -4 -1 -6 -4 -6c-2 0 -4 1 -7 4l-247 216c-7 5 -7 10 0 17l247 216c3 3 5 4 7 4c3 0 4 -2 4 -5v-44c0 -7 -3 -13 -9 -18l-178 -156c-2 -2 -3 -4 -3 -5s1 -2 3 -4l179 -157c5 -3 8 -9 8 -17zM282 104v-45c0 -3 -1 -5 -4 -5c-2 0 -4 1 -7 4l-217 191
c-4 4 -6 9 -6 14v38c0 6 2 11 6 14l218 191c5 5 10 6 10 -1v-44c0 -7 -2 -13 -7 -18l-180 -156c-1 -1 -2 -3 -2 -5c0 -1 1 -3 2 -4l181 -157c4 -4 6 -10 6 -17z" />
    <glyph glyph-name="logicalnot" unicode="&#xac;" horiz-adv-x="805" 
d="M74 522h618c7 0 10 -4 10 -11v-289c0 -7 -3 -10 -10 -10h-29c-8 0 -12 3 -12 10v241c0 5 -2 8 -7 8h-570c-7 0 -10 3 -10 9v31c0 7 3 11 10 11z" />
    <glyph glyph-name="softhyphen" unicode="&#xad;" horiz-adv-x="338" 
d="M48 249v48c0 6 4 9 11 9h221c7 0 10 -3 10 -9v-48c0 -6 -3 -9 -10 -9h-221c-7 0 -11 3 -11 9z" />
    <glyph glyph-name="registered" unicode="&#xae;" horiz-adv-x="552" 
d="M239 503h21c35 0 63 15 63 47c0 14 -4 24 -13 31c-11 8 -27 12 -49 12h-20c-5 0 -7 -2 -7 -6v-79c0 -3 2 -5 5 -5zM401 366c4 0 10 -6 10 -11s-3 -8 -10 -8h-31c-13 0 -22 5 -27 14c-2 5 -18 42 -27 60c-17 40 -34 54 -66 54h-12c-3 0 -4 -2 -4 -5v-53c0 -20 2 -33 5 -40
c3 -5 7 -9 12 -12s8 -7 8 -10c0 -5 -4 -8 -12 -8h-75c-7 0 -11 3 -11 8c0 3 3 7 9 10c5 3 9 7 12 12c3 7 5 20 5 40v145c0 23 -4 37 -11 41c-4 4 -12 5 -12 12c0 5 4 7 11 7h97c39 0 65 -6 79 -18c15 -12 22 -28 22 -49c0 -32 -22 -58 -59 -63c-3 0 -4 -1 -4 -3
c0 -1 1 -2 3 -3c23 -5 38 -21 57 -65c13 -31 24 -50 31 -55zM271 274c57 0 106 20 147 61s61 91 61 148s-20 106 -61 147s-90 62 -147 62s-105 -21 -146 -62s-61 -90 -61 -147s20 -107 61 -148s89 -61 146 -61zM271 726c67 0 125 -24 172 -72c48 -47 72 -104 72 -171
s-24 -124 -72 -171c-47 -47 -105 -71 -172 -71s-124 24 -171 71s-71 104 -71 171s24 124 71 171c47 48 104 72 171 72z" />
    <glyph glyph-name="overscore" unicode="&#xaf;" horiz-adv-x="514" 
d="M396 706v-33c0 -5 -3 -8 -9 -8h-261c-5 0 -8 3 -8 8v33c0 5 3 8 8 8h261c6 0 9 -3 9 -8z" />
    <glyph glyph-name="degree" unicode="&#xb0;" horiz-adv-x="309" 
d="M77 633c0 -40 33 -74 74 -74c40 0 73 34 73 74c0 41 -33 75 -73 75c-41 0 -74 -34 -74 -75zM34 633c0 32 11 59 34 81c23 23 51 34 83 34c64 0 116 -51 116 -115c0 -31 -11 -58 -34 -81c-23 -22 -50 -33 -82 -33s-60 11 -83 33c-23 23 -34 50 -34 81z" />
    <glyph glyph-name="plusminus" unicode="&#xb1;" horiz-adv-x="676" 
d="M580 418v-29c0 -6 -3 -9 -10 -9h-201c-3 0 -4 -2 -4 -5v-190c0 -6 -4 -9 -11 -9h-32c-7 0 -10 3 -10 9v190c0 3 -2 5 -5 5h-200c-7 0 -10 3 -10 9v29c0 7 3 11 10 11h200c3 0 5 1 5 4v189c0 7 3 11 10 11h32c7 0 11 -4 11 -11v-189c0 -3 1 -4 4 -4h201c7 0 10 -4 10 -11z
M579 102v-30c0 -6 -3 -9 -10 -9h-463c-7 0 -10 3 -10 9v30c0 7 3 10 10 10h463c7 0 10 -3 10 -10z" />
    <glyph glyph-name="two.superior" unicode="&#xb2;" horiz-adv-x="325" 
d="M55 875c20 20 54 30 101 30c76 0 131 -40 131 -104c0 -28 -11 -52 -32 -73c-15 -14 -44 -29 -88 -46c-43 -17 -72 -35 -86 -56c-6 -9 -9 -18 -9 -26c0 -5 3 -7 8 -7h100c25 0 44 1 55 3c10 2 19 7 26 15c6 7 11 10 16 10c10 0 15 -5 15 -14c0 -11 -5 -35 -5 -39
c-2 -22 -1 -38 -31 -38c-8 0 -46 3 -69 3h-125c-21 0 -31 10 -31 31c0 45 19 83 56 113c11 9 28 20 51 33s39 24 48 32c23 19 34 43 34 71c0 36 -24 62 -59 62c-21 0 -39 -9 -54 -26c-21 -25 -29 -58 -47 -54c-12 0 -18 12 -18 35c0 21 4 36 13 45z" />
    <glyph glyph-name="three.superior" unicode="&#xb3;" horiz-adv-x="336" 
d="M200 723c52 -5 101 -34 101 -94c0 -25 -9 -47 -27 -66c-26 -27 -67 -41 -124 -41c-58 0 -94 12 -109 37c-7 12 -11 29 -11 51c0 20 7 30 20 30c17 5 25 -32 41 -53c19 -23 42 -35 68 -35c45 0 76 28 76 81c0 50 -26 75 -78 75c-15 0 -37 -4 -41 -4c-10 0 -15 7 -15 20
s5 20 16 20c5 0 25 -4 41 -4c43 0 64 23 64 68c0 40 -23 67 -59 67c-17 0 -32 -5 -44 -15c-11 -9 -21 -24 -30 -43c-8 -16 -16 -24 -24 -24c-15 0 -22 13 -22 38s7 42 22 51c23 15 56 23 99 23c39 0 71 -10 94 -29c21 -17 31 -38 31 -62c0 -40 -30 -75 -89 -87
c-3 0 -3 -4 0 -4z" />
    <glyph glyph-name="acute" unicode="&#xb4;" horiz-adv-x="445" 
d="M340 713l-157 -99c-8 -6 -18 -9 -31 -9h-45c-4 0 -6 2 -6 5c0 1 2 4 6 7l118 96c10 9 22 13 37 13h72c7 0 10 -2 10 -6c0 -3 -1 -5 -4 -7z" />
    <glyph glyph-name="mu" unicode="&#xb5;" horiz-adv-x="722" 
d="M292 516l-62 -306c-9 -45 -13 -79 -13 -101c0 -43 15 -64 45 -64c45 0 96 49 151 146c49 87 83 171 104 254l15 63c2 8 6 13 13 14l51 10c3 1 5 1 7 1c5 0 8 -2 8 -7c0 -3 0 -6 -1 -9l-64 -315c-13 -66 -19 -103 -19 -111c0 -18 7 -27 20 -27c9 0 20 5 33 15
c13 11 23 16 28 16c8 0 15 -7 15 -15c0 -12 -11 -29 -32 -50c-28 -27 -57 -41 -88 -41c-43 0 -65 23 -65 69c0 23 7 61 21 114l4 15c0 1 -1 2 -3 2c-1 0 -3 -1 -4 -3c-69 -131 -142 -197 -218 -197c-41 0 -67 17 -80 50c-1 4 -5 4 -6 0l-22 -95c-6 -26 -10 -50 -12 -73
c-1 -23 -2 -36 -3 -37c-4 -17 -18 -26 -43 -26c-20 0 -30 7 -30 22c0 16 26 68 41 116c23 77 45 165 66 265l61 297c1 7 6 11 15 13l53 10c3 1 6 1 7 1c5 0 8 -3 8 -8c0 -3 0 -5 -1 -8z" />
    <glyph glyph-name="pilcrow" unicode="&#xb6;" horiz-adv-x="634" 
d="M318 346c8 0 12 3 12 10v307c0 7 -4 10 -11 10c-73 -1 -126 -24 -157 -67c-18 -26 -27 -57 -27 -94c0 -101 71 -163 183 -166zM364 714h170c16 0 24 -5 24 -15c0 -13 -17 -14 -26 -20c-12 -7 -19 -15 -22 -26s-4 -34 -4 -69v-666c0 -9 -5 -14 -14 -14h-20
c-10 0 -15 5 -15 14v236v500c0 16 -4 19 -19 19h-49c-7 0 -11 -4 -11 -11v-744c0 -9 -4 -14 -13 -14h-22c-9 0 -13 4 -13 13v378c0 7 -4 10 -11 10c-165 3 -270 64 -270 199c0 58 18 105 55 142c21 21 48 37 81 48s60 17 83 18s55 2 96 2z" />
    <glyph glyph-name="middot" unicode="&#xb7;" horiz-adv-x="281" 
d="M71 280c0 11 9 26 26 43c17 18 32 27 43 27s26 -9 43 -27c18 -17 27 -32 27 -43s-9 -25 -27 -43c-18 -17 -32 -26 -43 -26s-25 9 -43 26c-17 18 -26 32 -26 43z" />
    <glyph glyph-name="cedilla" unicode="&#xb8;" horiz-adv-x="410" 
d="M181 0h45c-18 -21 -27 -37 -27 -47c0 -31 92 -11 92 -74c0 -21 -11 -39 -33 -52c-21 -13 -44 -20 -69 -20c-35 0 -71 13 -71 30c0 11 6 16 18 16c11 0 36 -10 51 -10c20 0 35 14 35 30c0 39 -71 21 -71 64c0 13 10 34 30 63z" />
    <glyph glyph-name="one.superior" unicode="&#xb9;" horiz-adv-x="235" 
d="M159 888v-345c0 -7 -3 -10 -10 -10h-40c-7 0 -10 3 -10 10v266c0 27 -1 42 -4 45c-4 5 -13 7 -26 7c-11 0 -36 -1 -41 -1c-8 0 -12 5 -12 16c0 7 3 11 9 12l37 4c20 2 36 5 49 8c15 4 24 6 27 6c14 0 21 -6 21 -18z" />
    <glyph glyph-name="ordmasculine" unicode="&#xba;" horiz-adv-x="447" 
d="M324 513c0 105 -45 178 -108 178c-56 0 -93 -50 -93 -133c0 -49 10 -92 29 -127c20 -35 46 -53 79 -53c57 0 93 56 93 135zM226 726c52 0 93 -18 124 -54s47 -81 47 -136c0 -54 -17 -100 -50 -138c-33 -37 -74 -56 -124 -56c-104 0 -173 74 -173 189c0 54 17 100 50 138
s75 57 126 57zM256 151c-7 -5 -18 -8 -34 -8c-33 0 -41 8 -41 41c0 16 3 27 8 34c5 5 16 7 33 7s29 -2 34 -7s7 -17 7 -34s-2 -28 -7 -33z" />
    <glyph glyph-name="guillemotright" unicode="&#xbb;" horiz-adv-x="559" 
d="M82 59v45c0 8 3 14 8 17l179 157c2 2 3 3 3 4s-1 3 -3 5l-178 156c-6 5 -9 11 -9 18v44c0 3 1 5 4 5c2 0 4 -1 7 -4l247 -216c7 -7 7 -12 0 -17l-247 -216c-3 -3 -5 -4 -7 -4c-3 0 -4 2 -4 6zM277 59v45c0 7 2 13 6 17l181 157c1 1 2 3 2 4c0 2 -1 4 -2 5l-180 156
c-5 5 -7 11 -7 18v44c0 7 5 6 10 1l218 -191c4 -3 6 -8 6 -14v-38c0 -5 -2 -10 -6 -14l-217 -191c-3 -3 -5 -4 -7 -4c-3 0 -4 2 -4 5z" />
    <glyph glyph-name="onequarter" unicode="&#xbc;" horiz-adv-x="700" 
d="M613 126h38c6 0 9 -3 9 -9v-30c0 -6 -3 -9 -9 -9h-39c-5 0 -7 -3 -7 -8v-59c0 -7 -3 -11 -10 -11h-40c-7 0 -10 4 -10 11v59c0 5 -3 8 -8 8h-160c-6 0 -9 3 -9 10v28c0 9 3 15 8 20c67 63 103 139 107 228c0 6 3 9 8 9h40c5 0 7 -3 7 -9c-3 -76 -44 -154 -125 -233
c-1 -1 -2 -2 -2 -3s1 -2 3 -2h124c5 0 7 2 7 7v179c0 5 3 8 8 8h43c6 0 9 -3 9 -8v-179c0 -5 3 -7 8 -7zM216 708v-345c0 -7 -3 -10 -10 -10h-40c-7 0 -10 3 -10 10v266c0 27 -1 42 -4 45c-4 5 -13 7 -26 7c-11 0 -36 -1 -41 -1c-8 0 -12 5 -12 16c0 7 3 11 9 12l37 4
c20 2 36 5 49 8c15 4 24 6 27 6c14 0 21 -6 21 -18zM120 96l401 521h56l-401 -521h-56z" />
    <glyph glyph-name="onehalf" unicode="&#xbd;" horiz-adv-x="734" 
d="M118 96l401 521h56l-401 -521h-56zM216 710v-345c0 -7 -3 -10 -10 -10h-40c-7 0 -10 3 -10 10v266c0 27 -1 42 -4 45c-4 5 -13 7 -26 7c-11 0 -36 -1 -41 -1c-8 0 -12 5 -12 16c0 7 3 11 9 12l37 4c20 2 36 5 49 8c15 4 24 6 27 6c14 0 21 -6 21 -18zM452 342
c20 20 54 30 101 30c76 0 131 -40 131 -104c0 -28 -11 -52 -32 -73c-15 -14 -44 -29 -88 -46c-43 -17 -72 -35 -86 -56c-6 -9 -9 -17 -9 -26c0 -5 3 -7 8 -7h100c26 0 44 1 55 3c10 2 19 7 26 15c6 7 11 10 16 10c10 0 15 -5 15 -14c0 -11 -5 -35 -5 -39
c-2 -22 -1 -38 -31 -38c-8 0 -46 3 -69 3h-125c-21 0 -31 10 -31 31c0 45 19 83 56 113c11 9 28 20 51 33s39 24 48 32c23 19 34 43 34 71c0 36 -24 62 -59 62c-21 0 -39 -9 -54 -26c-21 -25 -29 -58 -47 -54c-12 0 -18 12 -18 35c0 21 4 36 13 45z" />
    <glyph glyph-name="threequarters" unicode="&#xbe;" horiz-adv-x="768" 
d="M230 543c52 -5 101 -34 101 -94c0 -25 -9 -47 -27 -66c-26 -27 -67 -41 -124 -41c-58 0 -94 12 -109 37c-7 12 -11 29 -11 51c0 20 7 30 20 30c17 5 25 -32 41 -53c19 -23 42 -35 68 -35c45 0 76 28 76 81c0 50 -26 75 -78 75c-15 0 -37 -4 -41 -4c-10 0 -15 7 -15 20
s5 20 16 20c5 0 25 -4 41 -4c43 0 64 23 64 68c0 40 -23 67 -59 67c-17 0 -32 -5 -44 -15c-11 -9 -21 -24 -30 -43c-8 -16 -16 -24 -24 -24c-15 0 -22 13 -22 38s7 42 22 51c23 15 56 23 99 23c39 0 71 -10 94 -29c21 -17 31 -38 31 -62c0 -40 -30 -75 -89 -87
c-3 0 -3 -4 0 -4zM681 126h38c6 0 9 -3 9 -9v-30c0 -6 -3 -9 -9 -9h-39c-5 0 -7 -3 -7 -8v-59c0 -7 -3 -11 -10 -11h-40c-7 0 -10 4 -10 11v59c0 5 -3 8 -8 8h-160c-6 0 -9 3 -9 10v28c0 9 3 15 8 20c67 63 103 139 107 228c0 6 3 9 8 9h40c5 0 7 -3 7 -9
c-3 -76 -44 -154 -125 -233c-1 -1 -2 -2 -2 -3s1 -2 3 -2h124c5 0 7 2 7 7v179c0 5 3 8 8 8h43c6 0 9 -3 9 -8v-179c0 -5 3 -7 8 -7zM190 96l401 521h56l-401 -521h-56z" />
    <glyph glyph-name="questiondown" unicode="&#xbf;" horiz-adv-x="490" 
d="M253 -150c36 0 63 10 81 31c19 21 28 42 28 64c0 23 -9 38 -28 47c-17 7 -26 16 -26 26c0 21 23 38 52 38c40 0 72 -37 72 -88c0 -41 -17 -78 -51 -111s-79 -50 -134 -50c-61 0 -110 18 -146 54c-35 35 -53 79 -53 130c0 63 26 117 77 160c13 11 35 25 66 43
c61 36 94 64 94 100c0 16 -7 26 -20 31c-10 3 -15 9 -15 16c0 13 12 20 36 20c39 0 59 -19 59 -56c0 -26 -14 -53 -42 -80c-5 -5 -25 -22 -62 -51s-62 -52 -76 -70c-25 -31 -38 -69 -38 -113c0 -81 47 -141 126 -141zM221 475c0 11 9 25 26 42c18 17 32 26 43 26
s25 -9 42 -26c18 -17 27 -31 27 -42s-9 -26 -27 -44c-17 -17 -31 -26 -42 -26s-26 9 -43 26c-17 18 -26 33 -26 44z" />
    <glyph glyph-name="Agrave" unicode="&#xc0;" horiz-adv-x="728" 
d="M231 286h244c5 0 8 2 8 6c0 1 -1 4 -2 7l-117 303c-1 4 -3 6 -4 6c-2 0 -4 -2 -5 -6l-130 -304c-1 -3 -2 -5 -2 -6c0 -4 3 -6 8 -6zM700 32c9 -5 14 -10 14 -17c0 -10 -9 -15 -26 -15h-142c-15 0 -22 5 -22 15c0 6 5 12 15 17c17 9 26 20 26 33s-8 40 -24 80l-36 91
c-2 6 -7 9 -16 9h-278c-6 0 -10 -3 -12 -8c-35 -81 -52 -133 -52 -157c0 -22 11 -38 32 -48c9 -4 13 -9 13 -16c0 -11 -8 -16 -25 -16h-129c-18 0 -27 5 -27 14c0 13 10 13 20 23c17 11 31 25 41 40c13 19 25 41 36 66c161 360 245 550 253 571c2 5 6 8 11 8h21
c6 0 10 -3 12 -8c2 -7 38 -101 107 -282s106 -278 111 -289c21 -49 37 -80 49 -93c5 -5 15 -11 28 -18zM425 801l-160 98c-4 3 -6 5 -6 7c0 5 3 7 10 7h71c15 0 28 -4 38 -13l123 -96c4 -3 6 -5 6 -7c0 -3 -2 -5 -7 -5h-43c-13 0 -23 3 -32 9z" />
    <glyph glyph-name="Aacute" unicode="&#xc1;" horiz-adv-x="728" 
d="M231 286h244c5 0 8 2 8 6c0 1 -1 4 -2 7l-117 303c-1 4 -3 6 -4 6c-2 0 -4 -2 -5 -6l-130 -304c-1 -3 -2 -5 -2 -6c0 -4 3 -6 8 -6zM700 32c9 -5 14 -10 14 -17c0 -10 -9 -15 -26 -15h-142c-15 0 -22 5 -22 15c0 6 5 12 15 17c17 9 26 20 26 33s-8 40 -24 80l-36 91
c-2 6 -7 9 -16 9h-278c-6 0 -10 -3 -12 -8c-35 -81 -52 -133 -52 -157c0 -22 11 -38 32 -48c9 -4 13 -9 13 -16c0 -11 -8 -16 -25 -16h-129c-18 0 -27 5 -27 14c0 13 10 13 20 23c17 11 31 25 41 40c13 19 25 41 36 66c161 360 245 550 253 571c2 5 6 8 11 8h21
c6 0 10 -3 12 -8c2 -7 38 -101 107 -282s106 -278 111 -289c21 -49 37 -80 49 -93c5 -5 15 -11 28 -18zM500 900l-157 -99c-8 -6 -18 -9 -31 -9h-45c-4 0 -6 2 -6 5c0 2 2 4 6 7l118 96c10 9 22 13 37 13h72c7 0 10 -2 10 -6c0 -3 -1 -5 -4 -7z" />
    <glyph glyph-name="Acircumflex" unicode="&#xc2;" horiz-adv-x="728" 
d="M231 286h244c5 0 8 2 8 6c0 1 -1 4 -2 7l-117 303c-1 4 -3 6 -4 6c-2 0 -4 -2 -5 -6l-130 -304c-1 -3 -2 -5 -2 -6c0 -4 3 -6 8 -6zM700 32c9 -5 14 -10 14 -17c0 -10 -9 -15 -26 -15h-142c-15 0 -22 5 -22 15c0 6 5 12 15 17c17 9 26 20 26 33s-8 40 -24 80l-36 91
c-2 6 -7 9 -16 9h-278c-6 0 -10 -3 -12 -8c-35 -81 -52 -133 -52 -157c0 -22 11 -38 32 -48c9 -4 13 -9 13 -16c0 -11 -8 -16 -25 -16h-129c-18 0 -27 5 -27 14c0 13 10 13 20 23c17 11 31 25 41 40c13 19 25 41 36 66c161 360 245 550 253 571c2 5 6 8 11 8h21
c6 0 10 -3 12 -8c2 -7 38 -101 107 -282s106 -278 111 -289c21 -49 37 -80 49 -93c5 -5 15 -11 28 -18zM289 787h-36c-3 0 -5 1 -5 3c0 1 1 3 3 6l89 110c4 5 9 7 16 7h49c7 0 13 -2 17 -7l89 -110c2 -2 3 -4 3 -5c0 -3 -2 -4 -5 -4h-38c-4 0 -8 2 -13 7l-74 78
c-3 3 -5 3 -9 -1l-73 -78c-4 -4 -8 -6 -13 -6z" />
    <glyph glyph-name="Atilde" unicode="&#xc3;" horiz-adv-x="728" 
d="M231 286h244c5 0 8 2 8 6c0 1 -1 4 -2 7l-117 303c-1 4 -3 6 -4 6c-2 0 -4 -2 -5 -6l-130 -304c-1 -3 -2 -5 -2 -6c0 -4 3 -6 8 -6zM700 32c9 -5 14 -10 14 -17c0 -10 -9 -15 -26 -15h-142c-15 0 -22 5 -22 15c0 6 5 12 15 17c17 9 26 20 26 33s-8 40 -24 80l-36 91
c-2 6 -7 9 -16 9h-278c-6 0 -10 -3 -12 -8c-35 -81 -52 -133 -52 -157c0 -22 11 -38 32 -48c9 -4 13 -9 13 -16c0 -11 -8 -16 -25 -16h-129c-18 0 -27 5 -27 14c0 13 10 13 20 23c17 11 31 25 41 40c13 19 25 41 36 66c161 360 245 550 253 571c2 5 6 8 11 8h21
c6 0 10 -3 12 -8c2 -7 38 -101 107 -282s106 -278 111 -289c21 -49 37 -80 49 -93c5 -5 15 -11 28 -18zM229 792l-11 4c-4 1 -6 3 -6 6c0 1 1 5 3 10c19 53 50 79 91 79c19 0 47 -7 85 -22c39 -15 65 -22 80 -22c20 0 37 12 50 37c2 4 4 6 7 6c2 0 5 -1 8 -2l11 -4
c3 -1 5 -3 5 -5c0 -1 -1 -4 -2 -7c-21 -56 -47 -80 -91 -80c-21 0 -51 7 -89 22s-64 22 -77 22c-21 0 -37 -13 -50 -39c-2 -5 -4 -7 -7 -7c-1 0 -3 1 -7 2z" />
    <glyph glyph-name="Adieresis" unicode="&#xc4;" horiz-adv-x="728" 
d="M231 286h244c5 0 8 2 8 6c0 1 -1 4 -2 7l-117 303c-1 4 -3 6 -4 6c-2 0 -4 -2 -5 -6l-130 -304c-1 -3 -2 -5 -2 -6c0 -4 3 -6 8 -6zM700 32c9 -5 14 -10 14 -17c0 -10 -9 -15 -26 -15h-142c-15 0 -22 5 -22 15c0 6 5 12 15 17c17 9 26 20 26 33s-8 40 -24 80l-36 91
c-2 6 -7 9 -16 9h-278c-6 0 -10 -3 -12 -8c-35 -81 -52 -133 -52 -157c0 -22 11 -38 32 -48c9 -4 13 -9 13 -16c0 -11 -8 -16 -25 -16h-129c-18 0 -27 5 -27 14c0 13 10 13 20 23c17 11 31 25 41 40c13 19 25 41 36 66c161 360 245 550 253 571c2 5 6 8 11 8h21
c6 0 10 -3 12 -8c2 -7 38 -101 107 -282s106 -278 111 -289c21 -49 37 -80 49 -93c5 -5 15 -11 28 -18zM434 797c-5 5 -8 16 -8 34c0 35 7 42 42 42c16 0 27 -3 34 -8c5 -5 7 -17 7 -34c0 -18 -2 -29 -7 -34c-7 -5 -18 -8 -35 -8s-28 3 -33 8zM265 797c-5 5 -8 16 -8 34
c0 35 7 42 42 42c16 0 27 -3 34 -8c5 -7 8 -18 8 -35s-3 -28 -8 -33c-7 -5 -18 -8 -35 -8s-28 3 -33 8z" />
    <glyph glyph-name="Aring" unicode="&#xc5;" horiz-adv-x="728" 
d="M231 286h244c5 0 8 2 8 6c0 1 -1 4 -2 7l-117 303c-1 4 -3 6 -4 6c-2 0 -4 -2 -5 -6l-130 -304c-1 -3 -2 -5 -2 -6c0 -4 3 -6 8 -6zM700 32c9 -5 14 -10 14 -17c0 -10 -9 -15 -26 -15h-142c-15 0 -22 5 -22 15c0 6 5 12 15 17c17 9 26 20 26 33s-8 40 -24 80l-36 91
c-2 6 -7 9 -16 9h-278c-6 0 -10 -3 -12 -8c-35 -81 -52 -133 -52 -157c0 -22 11 -38 32 -48c9 -4 13 -9 13 -16c0 -11 -8 -16 -25 -16h-129c-18 0 -27 5 -27 14c0 13 10 13 20 23c17 11 31 25 41 40c13 19 25 41 36 66c161 360 245 550 253 571c2 5 6 8 11 8h21
c6 0 10 -3 12 -8c2 -7 38 -101 107 -282s106 -278 111 -289c21 -49 37 -80 49 -93c5 -5 15 -11 28 -18zM382 878c-29 0 -55 -24 -55 -55s24 -56 55 -56s55 25 55 56s-24 55 -55 55zM317 759c-35 36 -35 92 0 127c36 35 94 35 129 0c36 -35 36 -91 0 -127
c-35 -35 -93 -35 -129 0z" />
    <glyph glyph-name="AE" unicode="&#xc6;" horiz-adv-x="1015" 
d="M257 286h243c6 0 9 2 9 7v352c0 5 -3 5 -7 0l-246 -350c-2 -3 -3 -5 -3 -6c0 -2 1 -3 4 -3zM946 186c15 0 22 -8 22 -23c0 -9 -2 -22 -7 -37c-7 -24 -15 -65 -19 -82c-7 -31 -20 -52 -53 -52c-4 0 -23 1 -57 4s-69 4 -106 4h-249c-19 0 -28 5 -28 16c0 7 6 13 18 19
c13 6 22 14 28 25c9 16 14 50 14 101v76c0 5 -3 7 -10 7h-271c-5 0 -10 -2 -13 -7c-8 -11 -23 -32 -44 -64c-39 -60 -59 -98 -59 -113c0 -11 5 -18 14 -23c11 -5 22 -10 22 -20c0 -11 -8 -17 -25 -17h-129c-17 0 -25 5 -25 16c0 12 15 16 30 26c21 13 46 38 75 77l377 527
c5 7 8 13 8 17c0 15 -20 13 -34 18c-11 3 -17 9 -17 17c0 11 8 16 24 16h303c38 0 74 1 109 4s54 4 57 4c23 0 34 -9 35 -27c0 -21 2 -98 4 -125c0 -21 -7 -31 -21 -31c-11 0 -20 8 -27 24c-5 11 -14 36 -19 47c-5 12 -16 28 -32 39c-23 16 -82 24 -177 24h-60
c-13 0 -19 -6 -19 -18v-237c0 -16 5 -20 21 -20c48 0 85 1 112 2c66 4 101 6 106 6c19 0 29 -5 29 -16c0 -7 -4 -15 -4 -18c-4 -23 -12 -27 -48 -27c-8 0 -23 1 -46 2l-55 4c-22 1 -56 1 -103 1c-8 0 -12 -4 -12 -13v-213c0 -43 5 -67 14 -74c11 -8 40 -12 87 -12
c27 0 51 1 74 4c28 3 51 10 68 19c18 9 32 20 43 33s25 34 43 63c11 18 21 27 32 27z" />
    <glyph glyph-name="Ccedilla" unicode="&#xc7;" horiz-adv-x="687" 
d="M611 180c19 0 23 -11 23 -46c0 -57 -20 -96 -61 -115c-41 -20 -95 -30 -160 -30c-1 0 -6 1 -9 1c-12 -17 -18 -29 -18 -37c0 -31 92 -11 92 -74c0 -21 -11 -39 -33 -52c-21 -13 -44 -20 -69 -20c-35 0 -71 13 -71 30c0 11 6 16 18 16c9 0 38 -10 51 -10c20 0 35 14 35 30
c0 39 -71 21 -71 64c0 14 8 32 24 55c-101 11 -178 50 -233 119c-54 69 -81 150 -81 244c0 120 51 226 142 295c65 51 139 76 221 76c63 0 117 -10 161 -31c21 -10 35 -22 41 -36s9 -38 9 -73c0 -40 -6 -49 -21 -49c-23 -6 -35 57 -69 91c-37 38 -84 57 -139 57
c-73 0 -134 -30 -185 -91c-50 -61 -75 -138 -75 -232c0 -97 26 -176 78 -239c52 -62 115 -93 189 -93c75 0 133 36 176 107c18 26 17 43 35 43z" />
    <glyph glyph-name="Egrave" unicode="&#xc8;" horiz-adv-x="621" 
d="M551 185c15 0 23 -8 23 -23c0 -7 -3 -20 -8 -40c-5 -19 -12 -58 -17 -75c-6 -27 -21 -59 -53 -55c-4 0 -23 1 -58 4s-70 4 -107 4h-248c-19 0 -28 5 -28 16c0 5 6 11 17 18c12 7 22 16 29 26c9 15 13 49 13 101v411c0 38 -1 63 -4 74s-10 20 -23 27c-11 7 -27 10 -27 24
c0 11 8 17 24 17h257c38 0 74 1 109 4s54 4 57 4c23 0 34 -9 35 -27c1 -11 2 -48 2 -63c1 -31 2 -52 2 -63c0 -20 -7 -30 -20 -30c-12 0 -21 8 -27 23l-9 23l-10 25c-4 9 -18 27 -34 38c-23 17 -80 25 -169 25h-67c-13 0 -19 -6 -19 -18v-238c0 -15 5 -20 21 -20
c36 0 70 1 103 3c67 3 103 5 108 5c24 0 36 -5 36 -15c0 -8 -4 -14 -4 -18c-5 -24 -13 -27 -40 -27c-11 0 -29 1 -54 2c-24 2 -43 3 -56 3c-51 1 -85 2 -102 2c-8 0 -12 -4 -12 -13v-213c0 -43 5 -67 14 -74c11 -8 39 -12 84 -12c27 0 53 1 77 4c41 5 70 15 88 30
c19 15 41 43 66 85c10 17 20 26 31 26zM334 801l-160 98c-4 3 -6 5 -6 7c0 5 3 7 10 7h71c15 0 28 -4 38 -13l123 -96c4 -3 6 -5 6 -7c0 -3 -2 -5 -7 -5h-43c-12 0 -23 3 -32 9z" />
    <glyph glyph-name="Eacute" unicode="&#xc9;" horiz-adv-x="621" 
d="M551 185c15 0 23 -8 23 -23c0 -7 -3 -20 -8 -40c-5 -19 -12 -58 -17 -75c-6 -27 -21 -59 -53 -55c-4 0 -23 1 -58 4s-70 4 -107 4h-248c-19 0 -28 5 -28 16c0 5 6 11 17 18c12 7 22 16 29 26c9 15 13 49 13 101v411c0 38 -1 63 -4 74s-10 20 -23 27c-11 7 -27 10 -27 24
c0 11 8 17 24 17h257c38 0 74 1 109 4s54 4 57 4c23 0 34 -9 35 -27c1 -11 2 -48 2 -63c1 -31 2 -52 2 -63c0 -20 -7 -30 -20 -30c-12 0 -21 8 -27 23l-9 23l-10 25c-4 9 -18 27 -34 38c-23 17 -80 25 -169 25h-67c-13 0 -19 -6 -19 -18v-238c0 -15 5 -20 21 -20
c36 0 70 1 103 3c67 3 103 5 108 5c24 0 36 -5 36 -15c0 -8 -4 -14 -4 -18c-5 -24 -13 -27 -40 -27c-11 0 -29 1 -54 2c-24 2 -43 3 -56 3c-51 1 -85 2 -102 2c-8 0 -12 -4 -12 -13v-213c0 -43 5 -67 14 -74c11 -8 39 -12 84 -12c27 0 53 1 77 4c41 5 70 15 88 30
c19 15 41 43 66 85c10 17 20 26 31 26zM449 900l-157 -99c-8 -6 -18 -9 -31 -9h-45c-4 0 -6 2 -6 5c0 2 2 4 6 7l118 96c10 9 22 13 37 13h72c7 0 10 -2 10 -6c0 -3 -1 -5 -4 -7z" />
    <glyph glyph-name="Ecircumflex" unicode="&#xca;" horiz-adv-x="621" 
d="M551 185c15 0 23 -8 23 -23c0 -7 -3 -20 -8 -40c-5 -19 -12 -58 -17 -75c-6 -27 -21 -59 -53 -55c-4 0 -23 1 -58 4s-70 4 -107 4h-248c-19 0 -28 5 -28 16c0 5 6 11 17 18c12 7 22 16 29 26c9 15 13 49 13 101v411c0 38 -1 63 -4 74s-10 20 -23 27c-11 7 -27 10 -27 24
c0 11 8 17 24 17h257c38 0 74 1 109 4s54 4 57 4c23 0 34 -9 35 -27c1 -11 2 -48 2 -63c1 -31 2 -52 2 -63c0 -20 -7 -30 -20 -30c-12 0 -21 8 -27 23l-9 23l-10 25c-4 9 -18 27 -34 38c-23 17 -80 25 -169 25h-67c-13 0 -19 -6 -19 -18v-238c0 -15 5 -20 21 -20
c36 0 70 1 103 3c67 3 103 5 108 5c24 0 36 -5 36 -15c0 -8 -4 -14 -4 -18c-5 -24 -13 -27 -40 -27c-11 0 -29 1 -54 2c-24 2 -43 3 -56 3c-51 1 -85 2 -102 2c-8 0 -12 -4 -12 -13v-213c0 -43 5 -67 14 -74c11 -8 39 -12 84 -12c27 0 53 1 77 4c41 5 70 15 88 30
c19 15 41 43 66 85c10 17 20 26 31 26zM211 787h-36c-3 0 -5 1 -5 3c0 1 1 3 3 6l89 110c4 5 9 7 16 7h49c7 0 13 -2 17 -7l89 -110c2 -2 3 -4 3 -5c0 -3 -2 -4 -5 -4h-38c-4 0 -8 2 -13 7l-74 78c-3 3 -5 3 -9 -1l-73 -78c-4 -4 -8 -6 -13 -6z" />
    <glyph glyph-name="Edieresis" unicode="&#xcb;" horiz-adv-x="621" 
d="M551 185c15 0 23 -8 23 -23c0 -7 -3 -20 -8 -40c-5 -19 -12 -58 -17 -75c-6 -27 -21 -59 -53 -55c-4 0 -23 1 -58 4s-70 4 -107 4h-248c-19 0 -28 5 -28 16c0 5 6 11 17 18c12 7 22 16 29 26c9 15 13 49 13 101v411c0 38 -1 63 -4 74s-10 20 -23 27c-11 7 -27 10 -27 24
c0 11 8 17 24 17h257c38 0 74 1 109 4s54 4 57 4c23 0 34 -9 35 -27c1 -11 2 -48 2 -63c1 -31 2 -52 2 -63c0 -20 -7 -30 -20 -30c-12 0 -21 8 -27 23l-9 23l-10 25c-4 9 -18 27 -34 38c-23 17 -80 25 -169 25h-67c-13 0 -19 -6 -19 -18v-238c0 -15 5 -20 21 -20
c36 0 70 1 103 3c67 3 103 5 108 5c24 0 36 -5 36 -15c0 -8 -4 -14 -4 -18c-5 -24 -13 -27 -40 -27c-11 0 -29 1 -54 2c-24 2 -43 3 -56 3c-51 1 -85 2 -102 2c-8 0 -12 -4 -12 -13v-213c0 -43 5 -67 14 -74c11 -8 39 -12 84 -12c27 0 53 1 77 4c41 5 70 15 88 30
c19 15 41 43 66 85c10 17 20 26 31 26zM353 797c-5 5 -8 16 -8 34c0 35 7 42 42 42c16 0 27 -3 34 -8c5 -5 7 -17 7 -34c0 -18 -2 -29 -7 -34c-7 -5 -18 -8 -35 -8s-28 3 -33 8zM184 797c-5 5 -8 16 -8 34c0 35 7 42 42 42c16 0 27 -3 34 -8c5 -7 8 -18 8 -35s-3 -28 -8 -33
c-7 -5 -18 -8 -35 -8s-28 3 -33 8z" />
    <glyph glyph-name="Igrave" unicode="&#xcc;" horiz-adv-x="303" 
d="M233 35c11 -5 16 -12 16 -19c0 -11 -9 -16 -28 -16h-139c-19 0 -28 5 -28 16c0 7 6 13 17 19c12 6 22 14 29 25c9 13 13 47 13 101v402c0 40 -2 67 -5 80s-9 23 -19 30c-11 8 -35 14 -30 25c0 11 8 16 25 16h135c17 0 26 -5 26 -16c4 -11 -19 -17 -30 -25
c-11 -7 -18 -17 -21 -30s-4 -40 -4 -80v-402c0 -52 4 -86 13 -101c7 -9 17 -18 30 -25zM195 801l-160 98c-4 3 -6 5 -6 7c0 5 3 7 10 7h71c15 0 28 -4 38 -13l123 -96c4 -3 6 -5 6 -7c0 -3 -2 -5 -7 -5h-43c-13 0 -23 3 -32 9z" />
    <glyph glyph-name="Iacute" unicode="&#xcd;" horiz-adv-x="303" 
d="M233 35c11 -5 16 -12 16 -19c0 -11 -9 -16 -28 -16h-139c-19 0 -28 5 -28 16c0 7 6 13 17 19c12 6 22 14 29 25c9 13 13 47 13 101v402c0 40 -2 67 -5 80s-9 23 -19 30c-11 8 -35 14 -30 25c0 11 8 16 25 16h135c17 0 26 -5 26 -16c4 -11 -19 -17 -30 -25
c-11 -7 -18 -17 -21 -30s-4 -40 -4 -80v-402c0 -52 4 -86 13 -101c7 -9 17 -18 30 -25zM272 900l-157 -99c-8 -6 -18 -9 -31 -9h-45c-4 0 -6 2 -6 5c0 2 2 4 6 7l118 96c10 9 22 13 37 13h72c7 0 10 -2 10 -6c0 -3 -1 -5 -4 -7z" />
    <glyph glyph-name="Icircumflex" unicode="&#xce;" horiz-adv-x="303" 
d="M233 35c11 -5 16 -12 16 -19c0 -11 -9 -16 -28 -16h-139c-19 0 -28 5 -28 16c0 7 6 13 17 19c12 6 22 14 29 25c9 13 13 47 13 101v402c0 40 -2 67 -5 80s-9 23 -19 30c-11 8 -35 14 -30 25c0 11 8 16 25 16h135c17 0 26 -5 26 -16c4 -11 -19 -17 -30 -25
c-11 -7 -18 -17 -21 -30s-4 -40 -4 -80v-402c0 -52 4 -86 13 -101c7 -9 17 -18 30 -25zM59 787h-36c-3 0 -5 1 -5 3c0 1 1 3 3 6l89 110c4 5 9 7 16 7h49c7 0 13 -2 17 -7l89 -110c2 -2 3 -4 3 -5c0 -3 -2 -4 -5 -4h-38c-4 0 -8 2 -13 7l-74 78c-3 3 -5 3 -9 -1l-73 -78
c-4 -4 -8 -6 -13 -6z" />
    <glyph glyph-name="Idieresis" unicode="&#xcf;" horiz-adv-x="303" 
d="M233 35c11 -5 16 -12 16 -19c0 -11 -9 -16 -28 -16h-139c-19 0 -28 5 -28 16c0 7 6 13 17 19c12 6 22 14 29 25c9 13 13 47 13 101v402c0 40 -2 67 -5 80s-9 23 -19 30c-11 8 -35 14 -30 25c0 11 8 16 25 16h135c17 0 26 -5 26 -16c4 -11 -19 -17 -30 -25
c-11 -7 -18 -17 -21 -30s-4 -40 -4 -80v-402c0 -52 4 -86 13 -101c7 -9 17 -18 30 -25zM203 797c-5 5 -8 16 -8 34c0 35 7 42 42 42c16 0 27 -3 34 -8c5 -5 7 -17 7 -34c0 -18 -2 -29 -7 -34c-7 -5 -18 -8 -35 -8s-28 3 -33 8zM34 797c-5 5 -8 16 -8 34c0 35 7 42 42 42
c16 0 27 -3 34 -8c5 -7 8 -18 8 -35s-3 -28 -8 -33c-7 -5 -18 -8 -35 -8s-28 3 -33 8z" />
    <glyph glyph-name="Eth" unicode="&#xd0;" horiz-adv-x="819" 
d="M665 618c70 -61 105 -144 105 -249c0 -96 -33 -183 -100 -254c-65 -71 -179 -115 -319 -115h-201c-19 0 -28 5 -28 16c0 7 6 13 17 19c13 6 22 14 28 25c9 15 14 48 14 101v173c0 5 -3 7 -8 7c-23 0 -40 0 -53 -1c-3 0 -12 -1 -27 -2c-14 -1 -25 -2 -33 -2
c-18 0 -27 5 -27 14c0 3 1 10 4 19c5 19 13 26 36 26c11 0 41 -4 54 -4c14 -1 29 -1 46 -1c5 0 8 3 8 8v166c0 41 -1 68 -4 80c-3 13 -10 23 -23 30c-11 5 -27 9 -27 23c0 11 8 17 24 17h181c91 0 160 -9 209 -26s90 -40 124 -70zM599 122c59 56 88 135 88 236
c0 52 -8 100 -31 155c-21 56 -67 105 -130 132c-31 13 -64 21 -99 24c-35 4 -86 6 -151 6c-13 0 -19 -6 -19 -19v-258c0 -5 3 -8 10 -8c29 0 50 0 64 1c7 0 20 1 37 2c17 2 31 3 40 3c19 0 29 -5 29 -16c0 -3 -1 -8 -3 -16c-5 -21 -14 -28 -38 -28c-13 0 -54 4 -71 4
c-17 1 -36 1 -59 1c-6 0 -9 -2 -9 -7v-217c0 -44 2 -56 14 -65c9 -8 31 -12 67 -12h12c110 0 193 27 249 82z" />
    <glyph glyph-name="Ntilde" unicode="&#xd1;" horiz-adv-x="770" 
d="M553 714h147c19 0 28 -5 28 -16c0 -13 -15 -17 -26 -22c-29 -12 -46 -36 -51 -121c-2 -30 -3 -166 -3 -408v-143c0 -8 -4 -12 -13 -12h-20c-4 0 -9 3 -14 10l-421 583c-1 2 -3 3 -4 3c-3 0 -4 -2 -4 -5c0 -245 1 -385 3 -419c5 -80 26 -112 71 -128c12 -5 18 -11 18 -19
c0 -11 -8 -17 -25 -17h-167c-18 0 -27 6 -27 17c0 15 16 13 24 21c33 14 52 56 55 126c3 61 5 220 5 475c0 5 -2 10 -6 14c-9 9 -19 15 -32 20c-20 8 -40 6 -40 23c0 12 9 18 28 18h83c13 0 23 -4 28 -12l405 -562c2 -3 4 -5 6 -5c3 0 4 1 4 4c0 236 -1 375 -3 416
c-4 80 -20 109 -53 121c-1 0 -2 0 -4 1c-14 6 -21 12 -22 19c0 12 10 18 30 18zM231 792l-11 4c-4 1 -6 3 -6 6c0 1 1 5 3 10c19 53 50 79 91 79c19 0 47 -7 85 -22s65 -22 80 -22c20 0 37 12 50 37c2 4 4 6 7 6c2 0 5 -1 8 -2l11 -4c3 -1 5 -3 5 -5c0 -1 -1 -4 -2 -7
c-21 -56 -47 -80 -91 -80c-21 0 -51 7 -89 22s-64 22 -77 22c-21 0 -37 -13 -50 -39c-2 -5 -4 -7 -7 -7c-1 0 -3 1 -7 2z" />
    <glyph glyph-name="Ograve" unicode="&#xd2;" horiz-adv-x="806" 
d="M399 687c-75 0 -138 -29 -189 -86s-76 -132 -76 -225c0 -96 25 -178 75 -245c51 -67 117 -101 198 -101c80 0 144 30 193 89c49 60 73 134 73 223c0 61 -11 117 -33 168c-43 104 -132 177 -241 177zM757 361c0 -103 -34 -190 -101 -263s-151 -109 -252 -109
c-119 0 -212 39 -277 117c-52 63 -78 145 -78 244c0 101 34 189 101 264c68 75 153 112 254 112c112 0 200 -36 264 -107c59 -65 89 -151 89 -258zM440 801l-160 98c-4 3 -6 5 -6 7c0 5 3 7 10 7h71c15 0 28 -4 38 -13l123 -96c4 -3 6 -5 6 -7c0 -3 -2 -5 -7 -5h-43
c-12 0 -23 3 -32 9z" />
    <glyph glyph-name="Oacute" unicode="&#xd3;" horiz-adv-x="806" 
d="M399 687c-75 0 -138 -29 -189 -86s-76 -132 -76 -225c0 -96 25 -178 75 -245c51 -67 117 -101 198 -101c80 0 144 30 193 89c49 60 73 134 73 223c0 61 -11 117 -33 168c-43 104 -132 177 -241 177zM757 361c0 -103 -34 -190 -101 -263s-151 -109 -252 -109
c-119 0 -212 39 -277 117c-52 63 -78 145 -78 244c0 101 34 189 101 264c68 75 153 112 254 112c112 0 200 -36 264 -107c59 -65 89 -151 89 -258zM529 900l-157 -99c-8 -6 -18 -9 -31 -9h-45c-4 0 -6 2 -6 5c0 2 2 4 6 7l118 96c10 9 22 13 37 13h72c7 0 10 -2 10 -6
c0 -3 -1 -5 -4 -7z" />
    <glyph glyph-name="Ocircumflex" unicode="&#xd4;" horiz-adv-x="806" 
d="M399 687c-75 0 -138 -29 -189 -86s-76 -132 -76 -225c0 -96 25 -178 75 -245c51 -67 117 -101 198 -101c80 0 144 30 193 89c49 60 73 134 73 223c0 61 -11 117 -33 168c-43 104 -132 177 -241 177zM757 361c0 -103 -34 -190 -101 -263s-151 -109 -252 -109
c-119 0 -212 39 -277 117c-52 63 -78 145 -78 244c0 101 34 189 101 264c68 75 153 112 254 112c112 0 200 -36 264 -107c59 -65 89 -151 89 -258zM315 787h-36c-3 0 -5 1 -5 3c0 1 1 3 3 6l89 110c4 5 9 7 16 7h49c7 0 13 -2 17 -7l89 -110c2 -2 3 -4 3 -5
c0 -3 -2 -4 -5 -4h-38c-4 0 -8 2 -13 7l-74 78c-3 3 -5 3 -9 -1l-73 -78c-4 -4 -8 -6 -13 -6z" />
    <glyph glyph-name="Otilde" unicode="&#xd5;" horiz-adv-x="806" 
d="M399 687c-75 0 -138 -29 -189 -86s-76 -132 -76 -225c0 -96 25 -178 75 -245c51 -67 117 -101 198 -101c80 0 144 30 193 89c49 60 73 134 73 223c0 61 -11 117 -33 168c-43 104 -132 177 -241 177zM757 361c0 -103 -34 -190 -101 -263s-151 -109 -252 -109
c-119 0 -212 39 -277 117c-52 63 -78 145 -78 244c0 101 34 189 101 264c68 75 153 112 254 112c112 0 200 -36 264 -107c59 -65 89 -151 89 -258zM252 792l-11 4c-4 1 -6 3 -6 6c0 1 1 5 3 10c19 53 50 79 91 79c19 0 48 -7 86 -22s64 -22 79 -22c20 0 37 12 50 37
c2 4 4 6 7 6c2 0 5 -1 8 -2l11 -4c3 -1 5 -3 5 -5c0 -1 -1 -4 -2 -7c-21 -56 -47 -80 -91 -80c-21 0 -51 7 -89 22s-64 22 -77 22c-20 0 -37 -13 -50 -39c-3 -5 -5 -7 -7 -7c-1 0 -3 1 -7 2z" />
    <glyph glyph-name="Odieresis" unicode="&#xd6;" horiz-adv-x="806" 
d="M455 797c-5 5 -8 16 -8 34c0 35 7 42 42 42c16 0 27 -3 34 -8c5 -5 7 -17 7 -34c0 -18 -2 -29 -7 -34c-7 -5 -18 -8 -35 -8s-28 3 -33 8zM286 797c-5 5 -8 16 -8 34c0 35 7 42 42 42c16 0 27 -3 34 -8c5 -7 8 -18 8 -35s-3 -28 -8 -33c-7 -5 -18 -8 -35 -8s-28 3 -33 8z
M399 687c-75 0 -138 -29 -189 -86s-76 -132 -76 -225c0 -96 25 -178 75 -245c51 -67 117 -101 198 -101c80 0 144 30 193 89c49 60 73 134 73 223c0 61 -11 117 -33 168c-43 104 -132 177 -241 177zM757 361c0 -103 -34 -190 -101 -263s-151 -109 -252 -109
c-119 0 -212 39 -277 117c-52 63 -78 145 -78 244c0 101 34 189 101 264c68 75 153 112 254 112c112 0 200 -36 264 -107c59 -65 89 -151 89 -258z" />
    <glyph glyph-name="multiply" unicode="&#xd7;" horiz-adv-x="598" 
d="M96 524l37 36l166 -166l166 166l37 -36l-167 -167l167 -166l-37 -37l-166 167l-166 -167l-37 37l166 166z" />
    <glyph glyph-name="Oslash" unicode="&#xd8;" horiz-adv-x="815" 
d="M411 30c82 0 147 30 194 90c48 61 72 134 72 219c0 81 -18 152 -53 213c-3 5 -5 5 -8 2l-394 -425c-1 -1 -2 -3 -2 -5c0 -1 1 -3 2 -4c51 -60 114 -90 189 -90zM191 165c4 -7 6 -6 10 -2l391 423c3 3 3 7 -1 11c-50 59 -112 89 -187 89c-80 0 -144 -30 -193 -90
c-49 -59 -73 -133 -73 -221c0 -78 18 -148 53 -210zM679 611c55 -64 82 -147 82 -248c0 -104 -34 -192 -101 -265s-152 -109 -253 -109c-93 0 -171 25 -234 76c-4 4 -6 4 -10 0l-54 -58c-4 -5 -9 -7 -16 -7h-32c-4 0 -6 1 -6 4c0 1 1 3 4 6l75 81c2 2 3 4 3 5c0 2 -1 4 -2 5
c-54 61 -81 140 -81 237c0 107 33 199 98 274c66 76 151 114 255 114c88 0 165 -26 232 -77c4 -4 8 -4 12 0l56 61c3 3 7 4 12 4h35c4 0 6 -1 6 -3c0 -1 -1 -3 -4 -6l-77 -83c-2 -2 -3 -4 -3 -6c0 -1 1 -3 3 -5z" />
    <glyph glyph-name="Ugrave" unicode="&#xd9;" horiz-adv-x="735" 
d="M534 714h147c19 0 28 -5 28 -15c0 -9 -8 -16 -25 -22c-29 -11 -44 -35 -51 -122c-1 -19 -2 -74 -2 -165v-130c0 -49 -6 -92 -19 -127c-37 -96 -119 -144 -244 -144c-130 0 -212 41 -245 122c-16 37 -24 89 -24 156v297c0 42 -1 69 -4 81s-10 22 -23 29
c-11 5 -27 10 -27 23c0 11 8 17 24 17h137c17 0 25 -6 25 -17c0 -13 -16 -17 -28 -23c-13 -7 -20 -16 -23 -27s-4 -36 -4 -75v-291c0 -55 6 -100 18 -133c27 -71 89 -107 186 -107c135 0 205 67 205 223c0 163 -1 261 -2 292c-4 79 -18 107 -53 120c-12 4 -24 7 -24 21
c0 11 9 17 28 17zM414 801l-160 98c-4 3 -6 5 -6 7c0 5 3 7 10 7h71c15 0 28 -4 38 -13l123 -96c4 -3 6 -5 6 -7c0 -3 -2 -5 -7 -5h-43c-12 0 -23 3 -32 9z" />
    <glyph glyph-name="Uacute" unicode="&#xda;" horiz-adv-x="735" 
d="M534 714h147c19 0 28 -5 28 -15c0 -9 -8 -16 -25 -22c-29 -11 -44 -35 -51 -122c-1 -19 -2 -74 -2 -165v-130c0 -49 -6 -92 -19 -127c-37 -96 -119 -144 -244 -144c-130 0 -212 41 -245 122c-16 37 -24 89 -24 156v297c0 42 -1 69 -4 81s-10 22 -23 29
c-11 5 -27 10 -27 23c0 11 8 17 24 17h137c17 0 25 -6 25 -17c0 -13 -16 -17 -28 -23c-13 -7 -20 -16 -23 -27s-4 -36 -4 -75v-291c0 -55 6 -100 18 -133c27 -71 89 -107 186 -107c135 0 205 67 205 223c0 163 -1 261 -2 292c-4 79 -18 107 -53 120c-12 4 -24 7 -24 21
c0 11 9 17 28 17zM506 900l-157 -99c-8 -6 -18 -9 -31 -9h-45c-4 0 -6 2 -6 5c0 2 2 4 6 7l118 96c10 9 22 13 37 13h72c7 0 10 -2 10 -6c0 -3 -1 -5 -4 -7z" />
    <glyph glyph-name="Ucircumflex" unicode="&#xdb;" horiz-adv-x="735" 
d="M534 714h147c19 0 28 -5 28 -15c0 -9 -8 -16 -25 -22c-29 -11 -44 -35 -51 -122c-1 -19 -2 -74 -2 -165v-130c0 -49 -6 -92 -19 -127c-37 -96 -119 -144 -244 -144c-130 0 -212 41 -245 122c-16 37 -24 89 -24 156v297c0 42 -1 69 -4 81s-10 22 -23 29
c-11 5 -27 10 -27 23c0 11 8 17 24 17h137c17 0 25 -6 25 -17c0 -13 -16 -17 -28 -23c-13 -7 -20 -16 -23 -27s-4 -36 -4 -75v-291c0 -55 6 -100 18 -133c27 -71 89 -107 186 -107c135 0 205 67 205 223c0 163 -1 261 -2 292c-4 79 -18 107 -53 120c-12 4 -24 7 -24 21
c0 11 9 17 28 17zM283 787h-36c-3 0 -5 1 -5 3c0 1 1 3 3 6l89 110c4 5 9 7 16 7h49c7 0 13 -2 17 -7l89 -110c2 -2 3 -4 3 -5c0 -3 -2 -4 -5 -4h-38c-4 0 -8 2 -13 7l-74 78c-3 3 -5 3 -9 -1l-73 -78c-4 -4 -8 -6 -13 -6z" />
    <glyph glyph-name="Udieresis" unicode="&#xdc;" horiz-adv-x="735" 
d="M534 714h147c19 0 28 -5 28 -15c0 -9 -8 -16 -25 -22c-29 -11 -44 -35 -51 -122c-1 -19 -2 -74 -2 -165v-130c0 -49 -6 -92 -19 -127c-37 -96 -119 -144 -244 -144c-130 0 -212 41 -245 122c-16 37 -24 89 -24 156v297c0 42 -1 69 -4 81s-10 22 -23 29
c-11 5 -27 10 -27 23c0 11 8 17 24 17h137c17 0 25 -6 25 -17c0 -13 -16 -17 -28 -23c-13 -7 -20 -16 -23 -27s-4 -36 -4 -75v-291c0 -55 6 -100 18 -133c27 -71 89 -107 186 -107c135 0 205 67 205 223c0 163 -1 261 -2 292c-4 79 -18 107 -53 120c-12 4 -24 7 -24 21
c0 11 9 17 28 17zM421 797c-5 5 -8 16 -8 34c0 35 7 42 42 42c16 0 27 -3 34 -8c5 -5 7 -17 7 -34c0 -18 -2 -29 -7 -34c-7 -5 -18 -8 -35 -8s-28 3 -33 8zM252 797c-5 5 -8 16 -8 34c0 35 7 42 42 42c16 0 27 -3 34 -8c5 -7 8 -18 8 -35s-3 -28 -8 -33c-7 -5 -18 -8 -35 -8
s-28 3 -33 8z" />
    <glyph glyph-name="Yacute" unicode="&#xdd;" horiz-adv-x="673" 
d="M659 699c0 -12 -12 -12 -19 -19c-14 -8 -27 -19 -39 -32c-10 -11 -27 -36 -50 -73l-180 -294c-2 -3 -3 -7 -3 -11v-106c0 -53 5 -89 15 -106c5 -9 14 -16 27 -22c11 -5 17 -12 17 -19c0 -11 -8 -17 -23 -17h-148c-16 0 -24 5 -24 16c0 8 6 14 17 19c13 5 22 13 28 23
c10 17 15 53 15 106v83c0 5 -1 10 -4 15l-167 309c-29 53 -47 84 -55 93c-7 9 -17 15 -29 19c-9 3 -13 8 -13 15c0 11 9 16 28 16h145c14 0 21 -5 21 -15c0 -7 -7 -13 -20 -20s-20 -17 -20 -30c0 -15 11 -42 32 -83l132 -243c4 -5 6 -6 11 2l106 179c41 70 62 117 62 140
c0 40 -43 32 -43 55c0 10 8 15 25 15h127c19 0 29 -5 29 -15zM478 900l-157 -99c-8 -6 -18 -9 -31 -9h-45c-4 0 -6 2 -6 5c0 2 2 4 6 7l118 96c10 9 22 13 37 13h72c7 0 10 -2 10 -6c0 -3 -1 -5 -4 -7z" />
    <glyph glyph-name="Thorn" unicode="&#xde;" horiz-adv-x="605" 
d="M507 506c33 -33 50 -76 50 -129c0 -39 -10 -74 -29 -105c-47 -75 -138 -112 -271 -112h-55c-8 0 -12 -3 -12 -10c0 -45 4 -75 13 -89c5 -9 15 -17 30 -26c11 -6 16 -12 16 -18c0 -11 -9 -17 -28 -17h-139c-19 0 -28 6 -28 17c0 6 6 12 17 18c12 6 22 15 29 26
c9 15 14 48 14 101v401c0 39 -2 66 -5 79c-3 14 -10 24 -20 31c-11 8 -34 14 -30 25c1 11 9 16 25 16h135c17 0 25 -5 25 -16c5 -10 -19 -19 -29 -25c-19 -12 -24 -28 -25 -92c0 -7 4 -11 12 -11h1h1h1h1h1h1h1h1h1h1h1h1h1h1h1h1h1h1h1h1h1h1h1h1h1h1h1h1h1h1h1h1h2h1h1h1
h1h1h1h2h1h1h1h1h1h10c41 0 73 -1 96 -3c47 -3 113 -21 152 -61zM451 277c14 25 21 56 21 92c0 37 -8 68 -24 93c-37 55 -92 68 -187 68h-59c-8 0 -12 -3 -12 -10v-309c0 -7 4 -10 12 -10h50c103 0 166 16 199 76z" />
    <glyph glyph-name="scharfess" unicode="&#xdf;" horiz-adv-x="585" 
d="M550 170c0 -45 -17 -84 -50 -118c-41 -41 -95 -62 -160 -62c-49 0 -73 20 -73 59c0 20 9 37 25 37c8 0 13 -2 22 -10l8 -7c18 -14 40 -21 67 -21c59 0 100 39 100 88c0 22 -8 41 -24 58c-15 17 -44 41 -85 71l-41 29l-31 28c-24 24 -32 48 -32 77c0 35 13 63 68 124
c41 47 62 84 62 110c0 44 -36 69 -81 69c-35 0 -64 -12 -88 -37c-32 -32 -44 -78 -44 -173v-327c0 -57 5 -92 15 -107c6 -9 16 -16 30 -23c10 -5 15 -11 15 -18c0 -11 -8 -17 -23 -17h-148c-15 0 -23 6 -23 17c0 7 5 13 15 18c15 7 24 15 29 23c10 17 15 52 15 107
c0 13 0 56 -1 129v153c0 6 -3 9 -9 9h-62c-7 0 -11 3 -11 9v30c0 7 4 10 11 10h67c5 0 8 2 8 7c3 54 16 99 40 135c41 63 119 101 196 101c73 0 130 -35 130 -99c0 -31 -27 -69 -80 -116c-43 -39 -65 -71 -65 -96c0 -19 7 -36 21 -53c14 -16 42 -38 83 -66
c69 -49 104 -88 104 -148z" />
    <glyph glyph-name="agrave" unicode="&#xe0;" horiz-adv-x="517" 
d="M350 274v15c0 3 -1 4 -3 4c-1 0 -3 -1 -4 -2c-15 -12 -43 -27 -84 -45c-41 -17 -69 -31 -85 -41c-36 -23 -54 -52 -54 -89c0 -51 36 -83 87 -83c47 0 94 27 119 80c16 33 24 87 24 161zM468 56c9 0 14 -5 14 -15c0 -24 -30 -52 -63 -52c-39 0 -61 27 -66 81
c0 3 -1 4 -2 4s-2 -1 -4 -4c-32 -52 -94 -81 -158 -81c-42 0 -78 12 -109 35s-46 54 -46 93c0 42 20 77 59 104c21 15 52 29 94 44s68 24 79 29c56 26 84 62 84 107c0 52 -34 91 -91 91c-31 0 -57 -9 -80 -28c-30 -24 -55 -70 -63 -81c-6 -10 -13 -15 -21 -15
c-15 0 -22 15 -22 44c0 34 5 58 16 73c13 16 38 29 75 38c24 7 51 10 82 10c61 0 108 -18 141 -55c27 -31 41 -82 41 -155c0 -17 -1 -45 -2 -84s-1 -68 -1 -88c0 -31 0 -41 3 -64c4 -23 12 -33 25 -33c3 0 12 2 15 2zM275 614l-160 98c-4 3 -6 5 -6 7c0 5 3 7 10 7h71
c15 0 28 -4 38 -13l123 -96c4 -3 6 -6 6 -7c0 -3 -2 -5 -7 -5h-43c-13 0 -23 3 -32 9z" />
    <glyph glyph-name="aacute" unicode="&#xe1;" horiz-adv-x="517" 
d="M350 274v15c0 3 -1 4 -3 4c-1 0 -3 -1 -4 -2c-15 -12 -43 -27 -84 -45c-41 -17 -69 -31 -85 -41c-36 -23 -54 -52 -54 -89c0 -51 36 -83 87 -83c47 0 94 27 119 80c16 33 24 87 24 161zM468 56c9 0 14 -5 14 -15c0 -24 -30 -52 -63 -52c-39 0 -61 27 -66 81
c0 3 -1 4 -2 4s-2 -1 -4 -4c-32 -52 -94 -81 -158 -81c-42 0 -78 12 -109 35s-46 54 -46 93c0 42 20 77 59 104c21 15 52 29 94 44s68 24 79 29c56 26 84 62 84 107c0 52 -34 91 -91 91c-31 0 -57 -9 -80 -28c-30 -24 -55 -70 -63 -81c-6 -10 -13 -15 -21 -15
c-15 0 -22 15 -22 44c0 34 5 58 16 73c13 16 38 29 75 38c24 7 51 10 82 10c61 0 108 -18 141 -55c27 -31 41 -82 41 -155c0 -17 -1 -45 -2 -84s-1 -68 -1 -88c0 -31 0 -41 3 -64c4 -23 12 -33 25 -33c3 0 12 2 15 2zM375 713l-157 -99c-8 -6 -18 -9 -31 -9h-45
c-4 0 -6 2 -6 5c0 1 2 4 6 7l118 96c10 9 22 13 37 13h72c7 0 10 -2 10 -6c0 -3 -1 -5 -4 -7z" />
    <glyph glyph-name="acircumflex" unicode="&#xe2;" horiz-adv-x="517" 
d="M350 274v15c0 3 -1 4 -3 4c-1 0 -3 -1 -4 -2c-15 -12 -43 -27 -84 -45c-41 -17 -69 -31 -85 -41c-36 -23 -54 -52 -54 -89c0 -51 36 -83 87 -83c47 0 94 27 119 80c16 33 24 87 24 161zM468 56c9 0 14 -5 14 -15c0 -24 -30 -52 -63 -52c-39 0 -61 27 -66 81
c0 3 -1 4 -2 4s-2 -1 -4 -4c-32 -52 -94 -81 -158 -81c-42 0 -78 12 -109 35s-46 54 -46 93c0 42 20 77 59 104c21 15 52 29 94 44s68 24 79 29c56 26 84 62 84 107c0 52 -34 91 -91 91c-31 0 -57 -9 -80 -28c-30 -24 -55 -70 -63 -81c-6 -10 -13 -15 -21 -15
c-15 0 -22 15 -22 44c0 34 5 58 16 73c13 16 38 29 75 38c24 7 51 10 82 10c61 0 108 -18 141 -55c27 -31 41 -82 41 -155c0 -17 -1 -45 -2 -84s-1 -68 -1 -88c0 -31 0 -41 3 -64c4 -23 12 -33 25 -33c3 0 12 2 15 2zM159 600h-36c-3 0 -5 1 -5 3c0 1 1 3 3 6l89 110
c4 5 9 7 16 7h49c7 0 13 -2 17 -7l89 -110c2 -2 3 -4 3 -5c0 -3 -2 -4 -5 -4h-38c-4 0 -8 2 -13 7l-74 78c-3 3 -5 3 -9 -1l-73 -78c-4 -4 -8 -6 -13 -6z" />
    <glyph glyph-name="atilde" unicode="&#xe3;" horiz-adv-x="517" 
d="M350 274v15c0 3 -1 4 -3 4c-1 0 -3 -1 -4 -2c-15 -12 -43 -27 -84 -45c-41 -17 -69 -31 -85 -41c-36 -23 -54 -52 -54 -89c0 -51 36 -83 87 -83c47 0 94 27 119 80c16 33 24 87 24 161zM468 56c9 0 14 -5 14 -15c0 -24 -30 -52 -63 -52c-39 0 -61 27 -66 81
c0 3 -1 4 -2 4s-2 -1 -4 -4c-32 -52 -94 -81 -158 -81c-42 0 -78 12 -109 35s-46 54 -46 93c0 42 20 77 59 104c21 15 52 29 94 44s68 24 79 29c56 26 84 62 84 107c0 52 -34 91 -91 91c-31 0 -57 -9 -80 -28c-30 -24 -55 -70 -63 -81c-6 -10 -13 -15 -21 -15
c-15 0 -22 15 -22 44c0 34 5 58 16 73c13 16 38 29 75 38c24 7 51 10 82 10c61 0 108 -18 141 -55c27 -31 41 -82 41 -155c0 -17 -1 -45 -2 -84s-1 -68 -1 -88c0 -31 0 -41 3 -64c4 -23 12 -33 25 -33c3 0 12 2 15 2zM87 627l-11 4c-4 1 -6 3 -6 6c0 2 1 5 3 10
c19 53 50 79 91 79c19 0 47 -7 85 -22s65 -22 80 -22c20 0 37 12 50 37c2 4 4 6 7 6c2 0 5 -1 8 -2l11 -4c3 -1 5 -3 5 -5c0 -1 -1 -4 -2 -7c-21 -56 -47 -80 -91 -80c-21 0 -51 7 -89 22s-64 22 -77 22c-21 0 -37 -13 -50 -39c-2 -5 -4 -7 -7 -7c-1 0 -3 1 -7 2z" />
    <glyph glyph-name="adieresis" unicode="&#xe4;" horiz-adv-x="517" 
d="M350 274v15c0 3 -1 4 -3 4c-1 0 -3 -1 -4 -2c-15 -12 -43 -27 -84 -45c-41 -17 -69 -31 -85 -41c-36 -23 -54 -52 -54 -89c0 -51 36 -83 87 -83c47 0 94 27 119 80c16 33 24 87 24 161zM468 56c9 0 14 -5 14 -15c0 -24 -30 -52 -63 -52c-39 0 -61 27 -66 81
c0 3 -1 4 -2 4s-2 -1 -4 -4c-32 -52 -94 -81 -158 -81c-42 0 -78 12 -109 35s-46 54 -46 93c0 42 20 77 59 104c21 15 52 29 94 44s68 24 79 29c56 26 84 62 84 107c0 52 -34 91 -91 91c-31 0 -57 -9 -80 -28c-30 -24 -55 -70 -63 -81c-6 -10 -13 -15 -21 -15
c-15 0 -22 15 -22 44c0 34 5 58 16 73c13 16 38 29 75 38c24 7 51 10 82 10c61 0 108 -18 141 -55c27 -31 41 -82 41 -155c0 -17 -1 -45 -2 -84s-1 -68 -1 -88c0 -31 0 -41 3 -64c4 -23 12 -33 25 -33c3 0 12 2 15 2zM296 638c-5 5 -8 16 -8 34c0 35 7 42 42 42
c16 0 27 -3 34 -8c5 -5 7 -17 7 -34c0 -18 -2 -29 -7 -34c-7 -5 -18 -8 -35 -8s-28 3 -33 8zM127 638c-5 5 -8 16 -8 34c0 35 7 42 42 42c16 0 27 -3 34 -8c5 -7 8 -18 8 -35s-3 -28 -8 -33c-7 -5 -18 -8 -35 -8s-28 3 -33 8z" />
    <glyph glyph-name="aring" unicode="&#xe5;" horiz-adv-x="517" 
d="M350 274v15c0 3 -1 4 -3 4c-1 0 -3 -1 -4 -2c-15 -12 -43 -27 -84 -45c-41 -17 -69 -31 -85 -41c-36 -23 -54 -52 -54 -89c0 -51 36 -83 87 -83c47 0 94 27 119 80c16 33 24 87 24 161zM468 56c9 0 14 -5 14 -15c0 -24 -30 -52 -63 -52c-39 0 -61 27 -66 81
c0 3 -1 4 -2 4s-2 -1 -4 -4c-32 -52 -94 -81 -158 -81c-42 0 -78 12 -109 35s-46 54 -46 93c0 42 20 77 59 104c21 15 52 29 94 44s68 24 79 29c56 26 84 62 84 107c0 52 -34 91 -91 91c-31 0 -57 -9 -80 -28c-30 -24 -55 -70 -63 -81c-6 -10 -13 -15 -21 -15
c-15 0 -22 15 -22 44c0 34 5 58 16 73c13 16 38 29 75 38c24 7 51 10 82 10c61 0 108 -18 141 -55c27 -31 41 -82 41 -155c0 -17 -1 -45 -2 -84s-1 -68 -1 -88c0 -31 0 -41 3 -64c4 -23 12 -33 25 -33c3 0 12 2 15 2zM190 658c0 -31 24 -56 55 -56s55 25 55 56
s-24 55 -55 55s-55 -26 -55 -55zM180 594c-35 36 -35 92 0 127c36 35 94 35 129 0c36 -35 36 -91 0 -127c-35 -35 -93 -35 -129 0z" />
    <glyph glyph-name="ae" unicode="&#xe6;" horiz-adv-x="819" 
d="M433 329c0 -4 2 -6 7 -6h142c85 0 109 13 109 64c0 53 -38 105 -109 105c-52 0 -97 -34 -118 -75c-20 -40 -31 -73 -31 -88zM351 282v5c0 4 -1 6 -4 6c-1 0 -4 -1 -7 -4c-15 -11 -43 -26 -82 -43s-67 -30 -84 -41c-36 -22 -54 -52 -54 -89c0 -51 36 -83 88 -83
c48 0 96 28 120 81c7 15 12 33 15 52s5 36 6 51s1 36 2 65zM760 125c11 0 17 -6 17 -18c0 -19 -17 -41 -51 -68c-43 -33 -92 -50 -149 -50c-79 0 -151 36 -192 113c-3 4 -5 6 -6 6c-3 0 -5 -2 -6 -6c-33 -76 -104 -113 -180 -113c-45 0 -82 11 -113 34s-46 55 -46 94
c0 43 20 78 60 105c19 13 49 27 90 41c42 15 69 25 81 30c57 27 86 64 86 111c0 51 -38 89 -95 89c-26 0 -51 -9 -75 -28c-10 -8 -18 -16 -25 -25c-7 -8 -14 -19 -23 -33l-13 -23c-7 -10 -14 -15 -23 -15c-23 4 -24 20 -23 44c0 34 5 58 16 71c12 16 34 28 65 36
c31 9 61 13 90 13c81 0 136 -29 165 -86c3 -5 5 -5 9 0c42 57 98 86 167 86c57 0 102 -19 137 -56s53 -82 53 -134c0 -45 -10 -64 -53 -64h-287c-5 0 -8 -2 -8 -7v-5c0 -67 17 -119 51 -158c35 -39 76 -58 123 -58c37 0 71 10 100 29c30 18 46 45 58 45z" />
    <glyph glyph-name="ccedilla" unicode="&#xe7;" horiz-adv-x="509" 
d="M459 84c-33 -55 -100 -92 -176 -96c-11 -14 -17 -26 -17 -35c0 -31 92 -11 92 -74c0 -21 -11 -39 -33 -52c-21 -13 -44 -20 -69 -20c-35 0 -71 13 -71 30c0 11 6 16 18 16c11 0 38 -10 51 -10c20 0 35 14 35 30c0 39 -71 21 -71 64c0 15 8 32 23 53
c-63 9 -112 37 -147 86c-30 41 -45 93 -45 156c0 96 39 194 115 251c43 33 94 50 153 50c43 0 96 -12 119 -36c12 -12 18 -35 18 -68c0 -38 -8 -57 -24 -57c-20 -6 -29 36 -46 59c-25 37 -59 55 -101 55c-40 0 -74 -17 -102 -51c-35 -42 -53 -101 -53 -177
c0 -53 11 -98 33 -134c31 -51 76 -76 136 -76c49 0 92 20 127 59c11 12 20 18 27 18c11 0 17 -6 17 -18c0 -6 -3 -14 -9 -23z" />
    <glyph glyph-name="egrave" unicode="&#xe8;" horiz-adv-x="542" 
d="M136 329c0 -6 3 -9 9 -9h179c65 0 92 15 92 64c0 27 -11 52 -34 75c-22 23 -52 34 -89 34c-34 0 -64 -11 -89 -33c-51 -44 -68 -96 -68 -131zM489 108c0 -22 -23 -49 -70 -80c-39 -26 -84 -39 -134 -39c-68 0 -125 24 -170 71c-45 48 -67 110 -67 187s24 143 71 200
s108 86 182 86c57 0 105 -18 143 -55c37 -37 56 -79 56 -126c0 -52 -20 -72 -77 -72h-283c-7 0 -11 -3 -11 -10c0 -62 13 -112 39 -149c35 -51 80 -77 135 -77c33 0 64 8 92 25c24 15 46 38 58 50c18 18 36 6 36 -11zM322 614l-160 98c-4 3 -6 5 -6 7c0 5 3 7 10 7h71
c15 0 28 -4 38 -13l123 -96c4 -3 6 -6 6 -7c0 -3 -2 -5 -7 -5h-43c-12 0 -23 3 -32 9z" />
    <glyph glyph-name="eacute" unicode="&#xe9;" horiz-adv-x="542" 
d="M136 329c0 -6 3 -9 9 -9h179c65 0 92 15 92 64c0 27 -11 52 -34 75c-22 23 -52 34 -89 34c-34 0 -64 -11 -89 -33c-51 -44 -68 -96 -68 -131zM489 108c0 -22 -23 -49 -70 -80c-39 -26 -84 -39 -134 -39c-68 0 -125 24 -170 71c-45 48 -67 110 -67 187s24 143 71 200
s108 86 182 86c57 0 105 -18 143 -55c37 -37 56 -79 56 -126c0 -52 -20 -72 -77 -72h-283c-7 0 -11 -3 -11 -10c0 -62 13 -112 39 -149c35 -51 80 -77 135 -77c33 0 64 8 92 25c24 15 46 38 58 50c18 18 36 6 36 -11zM414 713l-157 -99c-8 -6 -18 -9 -31 -9h-45
c-4 0 -6 2 -6 5c0 1 2 4 6 7l118 96c10 9 22 13 37 13h72c7 0 10 -2 10 -6c0 -3 -1 -5 -4 -7z" />
    <glyph glyph-name="ecircumflex" unicode="&#xea;" horiz-adv-x="542" 
d="M136 329c0 -6 3 -9 9 -9h179c65 0 92 15 92 64c0 27 -11 52 -34 75c-22 23 -52 34 -89 34c-34 0 -64 -11 -89 -33c-51 -44 -68 -96 -68 -131zM489 108c0 -22 -23 -49 -70 -80c-39 -26 -84 -39 -134 -39c-68 0 -125 24 -170 71c-45 48 -67 110 -67 187s24 143 71 200
s108 86 182 86c57 0 105 -18 143 -55c37 -37 56 -79 56 -126c0 -52 -20 -72 -77 -72h-283c-7 0 -11 -3 -11 -10c0 -62 13 -112 39 -149c35 -51 80 -77 135 -77c33 0 64 8 92 25c24 15 46 38 58 50c18 18 36 6 36 -11zM199 600h-36c-3 0 -5 1 -5 3c0 1 1 3 3 6l89 110
c4 5 9 7 16 7h49c7 0 13 -2 17 -7l89 -110c2 -2 3 -4 3 -5c0 -3 -2 -4 -5 -4h-38c-4 0 -8 2 -13 7l-74 78c-3 3 -5 3 -9 -1l-73 -78c-4 -4 -8 -6 -13 -6z" />
    <glyph glyph-name="edieresis" unicode="&#xeb;" horiz-adv-x="542" 
d="M136 329c0 -6 3 -9 9 -9h179c65 0 92 15 92 64c0 27 -11 52 -34 75c-22 23 -52 34 -89 34c-34 0 -64 -11 -89 -33c-51 -44 -68 -96 -68 -131zM489 108c0 -22 -23 -49 -70 -80c-39 -26 -84 -39 -134 -39c-68 0 -125 24 -170 71c-45 48 -67 110 -67 187s24 143 71 200
s108 86 182 86c57 0 105 -18 143 -55c37 -37 56 -79 56 -126c0 -52 -20 -72 -77 -72h-283c-7 0 -11 -3 -11 -10c0 -62 13 -112 39 -149c35 -51 80 -77 135 -77c33 0 64 8 92 25c24 15 46 38 58 50c18 18 36 6 36 -11zM339 638c-5 5 -8 16 -8 34c0 35 7 42 42 42
c16 0 27 -3 34 -8c5 -5 7 -17 7 -34c0 -18 -2 -29 -7 -34c-7 -5 -18 -8 -35 -8s-28 3 -33 8zM170 638c-5 5 -8 16 -8 34c0 35 7 42 42 42c16 0 27 -3 34 -8c5 -7 8 -18 8 -35s-3 -28 -8 -33c-7 -5 -18 -8 -35 -8s-28 3 -33 8z" />
    <glyph glyph-name="igrave" unicode="&#xec;" horiz-adv-x="292" 
d="M234 34c10 -6 15 -12 15 -17c0 -11 -8 -17 -23 -17h-149c-15 0 -23 6 -23 17c0 6 5 12 15 17c15 8 24 16 29 24c10 15 15 50 15 107v228c0 29 -3 47 -10 55c-6 7 -16 13 -31 16c-15 4 -23 10 -23 18c0 11 4 16 27 21c29 7 55 15 79 25c8 3 14 5 17 5c12 0 18 -8 18 -24
v-344c0 -56 5 -92 15 -107c5 -9 15 -17 29 -24zM187 614l-160 98c-4 3 -6 5 -6 7c0 5 3 7 10 7h71c15 0 28 -4 38 -13l123 -96c4 -3 6 -6 6 -7c0 -3 -2 -5 -7 -5h-43c-13 0 -23 3 -32 9z" />
    <glyph glyph-name="iacute" unicode="&#xed;" horiz-adv-x="292" 
d="M234 34c10 -6 15 -12 15 -17c0 -11 -8 -17 -23 -17h-149c-15 0 -23 6 -23 17c0 6 5 12 15 17c15 8 24 16 29 24c10 15 15 50 15 107v228c0 29 -3 47 -10 55c-6 7 -16 13 -31 16c-15 4 -23 10 -23 18c0 11 4 16 27 21c29 7 55 15 79 25c8 3 14 5 17 5c12 0 18 -8 18 -24
v-344c0 -56 5 -92 15 -107c5 -9 15 -17 29 -24zM258 713l-157 -99c-8 -6 -18 -9 -31 -9h-45c-4 0 -6 2 -6 5c0 1 2 4 6 7l118 96c10 9 22 13 37 13h72c7 0 10 -2 10 -6c0 -3 -1 -5 -4 -7z" />
    <glyph glyph-name="icircumflex" unicode="&#xee;" horiz-adv-x="292" 
d="M234 34c10 -6 15 -12 15 -17c0 -11 -8 -17 -23 -17h-149c-15 0 -23 6 -23 17c0 6 5 12 15 17c15 8 24 16 29 24c10 15 15 50 15 107v228c0 29 -3 47 -10 55c-6 7 -16 13 -31 16c-15 4 -23 10 -23 18c0 11 4 16 27 21c29 7 55 15 79 25c8 3 14 5 17 5c12 0 18 -8 18 -24
v-344c0 -56 5 -92 15 -107c5 -9 15 -17 29 -24zM54 600h-36c-3 0 -5 1 -5 3c0 1 1 3 3 6l89 110c4 5 9 7 16 7h49c7 0 13 -2 17 -7l89 -110c2 -2 3 -4 3 -5c0 -3 -2 -4 -5 -4h-38c-4 0 -8 2 -13 7l-74 78c-3 3 -5 3 -9 -1l-73 -78c-4 -4 -8 -6 -13 -6z" />
    <glyph glyph-name="idieresis" unicode="&#xef;" horiz-adv-x="292" 
d="M234 34c10 -6 15 -12 15 -17c0 -11 -8 -17 -23 -17h-149c-15 0 -23 6 -23 17c0 6 5 12 15 17c15 8 24 16 29 24c10 15 15 50 15 107v228c0 29 -3 47 -10 55c-6 7 -16 13 -31 16c-15 4 -23 10 -23 18c0 11 4 16 27 21c29 7 55 15 79 25c8 3 14 5 17 5c12 0 18 -8 18 -24
v-344c0 -56 5 -92 15 -107c5 -9 15 -17 29 -24zM191 638c-5 5 -8 16 -8 34c0 35 7 42 42 42c16 0 27 -3 34 -8c5 -5 7 -17 7 -34c0 -18 -2 -29 -7 -34c-7 -5 -18 -8 -35 -8s-28 3 -33 8zM22 638c-5 5 -8 16 -8 34c0 35 7 42 42 42c16 0 27 -3 34 -8c5 -7 8 -18 8 -35
s-3 -28 -8 -33c-7 -5 -18 -8 -35 -8s-28 3 -33 8z" />
    <glyph glyph-name="eth" unicode="&#xf0;" horiz-adv-x="559" 
d="M510 279c0 -93 -22 -164 -67 -215c-44 -50 -101 -75 -171 -75c-65 0 -119 23 -162 68s-64 104 -64 177c0 71 22 129 65 176s96 70 157 70c69 0 125 -35 152 -80c2 -3 4 -4 5 -4c2 0 3 1 3 4c-16 76 -50 144 -102 205l-120 -71c-3 -1 -5 -2 -6 -2c-3 0 -6 2 -9 6l-11 18
c-1 3 -2 5 -2 6c0 3 2 5 5 7l113 66c-41 35 -80 53 -117 53c-11 0 -29 -2 -34 -2c-15 0 -22 5 -22 15c0 7 9 17 28 28c22 12 41 18 58 18c48 0 97 -25 147 -76l124 74c3 1 5 2 6 2c3 0 5 -2 8 -6l12 -20c1 -1 1 -3 1 -4c0 -3 -2 -5 -5 -7l-118 -70
c84 -103 126 -223 126 -361zM288 33c49 0 85 19 110 57s38 83 38 135c0 68 -16 120 -49 155c-32 35 -68 53 -108 53c-91 0 -148 -75 -148 -184c0 -65 15 -118 46 -157s68 -59 111 -59z" />
    <glyph glyph-name="ntilde" unicode="&#xf1;" horiz-adv-x="618" 
d="M565 35c11 -5 16 -11 16 -18c0 -11 -8 -17 -25 -17h-148c-16 0 -24 6 -24 17c0 7 5 13 15 18c14 6 24 14 29 23c11 18 16 54 16 107v170c0 87 -40 134 -116 134c-37 0 -67 -12 -91 -36c-20 -20 -33 -48 -39 -83s-9 -97 -9 -185c0 -53 5 -89 16 -107c5 -8 14 -16 29 -23
c10 -5 15 -11 15 -18c0 -11 -8 -17 -24 -17h-147c-16 0 -24 6 -24 17c0 7 5 13 15 18c15 7 25 14 30 23c11 18 16 54 16 107v196c0 49 -4 78 -12 88c-5 6 -15 11 -32 16c-14 4 -21 10 -21 18c0 10 8 17 25 21c27 6 53 14 77 25c6 3 12 4 17 4c13 0 20 -8 20 -23v-65
c0 -7 3 -7 7 0c39 59 93 88 162 88c51 0 91 -17 121 -50c28 -31 42 -79 42 -146v-172c0 -55 5 -90 15 -107c5 -9 15 -17 29 -23zM164 627l-11 4c-4 1 -6 3 -6 6c0 2 1 5 3 10c19 53 50 79 91 79c19 0 48 -7 85 -22c38 -15 65 -22 80 -22c20 0 37 12 50 37c2 4 4 6 7 6
c2 0 5 -1 8 -2l11 -4c3 -1 5 -3 5 -5c0 -1 -1 -4 -2 -7c-21 -56 -47 -80 -91 -80c-21 0 -51 7 -89 22s-64 22 -77 22c-20 0 -37 -13 -50 -39c-3 -5 -5 -7 -7 -7c-1 0 -3 1 -7 2z" />
    <glyph glyph-name="ograve" unicode="&#xf2;" horiz-adv-x="590" 
d="M462 234c0 52 -9 100 -28 144c-19 45 -45 77 -80 96c-23 13 -46 19 -68 19c-27 0 -53 -7 -77 -22c-53 -35 -80 -94 -80 -177c0 -71 16 -133 49 -185s75 -78 128 -78c49 0 88 21 117 62c26 37 39 84 39 141zM296 533c77 0 138 -25 181 -76s65 -115 65 -193
c0 -77 -23 -142 -70 -195c-46 -53 -105 -80 -176 -80c-75 0 -136 24 -181 73s-67 114 -67 196c0 77 23 142 70 195s106 80 178 80zM341 614l-160 98c-4 3 -6 5 -6 7c0 5 3 7 10 7h71c15 0 28 -4 38 -13l123 -96c4 -3 6 -6 6 -7c0 -3 -2 -5 -7 -5h-43c-13 0 -23 3 -32 9z" />
    <glyph glyph-name="oacute" unicode="&#xf3;" horiz-adv-x="590" 
d="M462 234c0 52 -9 100 -28 144c-19 45 -45 77 -80 96c-23 13 -46 19 -68 19c-27 0 -53 -7 -77 -22c-53 -35 -80 -94 -80 -177c0 -71 16 -133 49 -185s75 -78 128 -78c49 0 88 21 117 62c26 37 39 84 39 141zM296 533c77 0 138 -25 181 -76s65 -115 65 -193
c0 -77 -23 -142 -70 -195c-46 -53 -105 -80 -176 -80c-75 0 -136 24 -181 73s-67 114 -67 196c0 77 23 142 70 195s106 80 178 80zM413 713l-157 -99c-8 -6 -18 -9 -31 -9h-45c-4 0 -6 2 -6 5c0 1 2 4 6 7l118 96c10 9 22 13 37 13h72c7 0 10 -2 10 -6c0 -3 -1 -5 -4 -7z
" />
    <glyph glyph-name="ocircumflex" unicode="&#xf4;" horiz-adv-x="590" 
d="M462 234c0 52 -9 100 -28 144c-19 45 -45 77 -80 96c-23 13 -46 19 -68 19c-27 0 -53 -7 -77 -22c-53 -35 -80 -94 -80 -177c0 -71 16 -133 49 -185s75 -78 128 -78c49 0 88 21 117 62c26 37 39 84 39 141zM296 533c77 0 138 -25 181 -76s65 -115 65 -193
c0 -77 -23 -142 -70 -195c-46 -53 -105 -80 -176 -80c-75 0 -136 24 -181 73s-67 114 -67 196c0 77 23 142 70 195s106 80 178 80zM199 600h-36c-3 0 -5 1 -5 3c0 1 1 3 3 6l89 110c4 5 9 7 16 7h49c7 0 13 -2 17 -7l89 -110c2 -2 3 -4 3 -5c0 -3 -2 -4 -5 -4h-38
c-4 0 -8 2 -13 7l-74 78c-3 3 -5 3 -9 -1l-73 -78c-4 -4 -8 -6 -13 -6z" />
    <glyph glyph-name="otilde" unicode="&#xf5;" horiz-adv-x="590" 
d="M462 234c0 52 -9 100 -28 144c-19 45 -45 77 -80 96c-23 13 -46 19 -68 19c-27 0 -53 -7 -77 -22c-53 -35 -80 -94 -80 -177c0 -71 16 -133 49 -185s75 -78 128 -78c49 0 88 21 117 62c26 37 39 84 39 141zM296 533c77 0 138 -25 181 -76s65 -115 65 -193
c0 -77 -23 -142 -70 -195c-46 -53 -105 -80 -176 -80c-75 0 -136 24 -181 73s-67 114 -67 196c0 77 23 142 70 195s106 80 178 80zM142 627l-11 4c-4 1 -6 3 -6 6c0 2 1 5 3 10c19 53 50 79 91 79c19 0 47 -7 85 -22c39 -15 65 -22 80 -22c20 0 37 12 50 37c2 4 4 6 7 6
c2 0 5 -1 8 -2l11 -4c3 -1 5 -3 5 -5c0 -1 -1 -4 -2 -7c-21 -56 -47 -80 -91 -80c-21 0 -51 7 -89 22s-64 22 -77 22c-20 0 -37 -13 -50 -39c-3 -5 -5 -7 -7 -7c-1 0 -3 1 -7 2z" />
    <glyph glyph-name="odieresis" unicode="&#xf6;" horiz-adv-x="590" 
d="M346 638c-5 5 -8 16 -8 34c0 35 7 42 42 42c16 0 27 -3 34 -8c5 -5 7 -17 7 -34c0 -18 -2 -29 -7 -34c-7 -5 -18 -8 -35 -8s-28 3 -33 8zM177 638c-5 5 -8 16 -8 34c0 35 7 42 42 42c16 0 27 -3 34 -8c5 -7 8 -18 8 -35s-3 -28 -8 -33c-7 -5 -18 -8 -35 -8s-28 3 -33 8z
M462 234c0 52 -9 100 -28 144c-19 45 -45 77 -80 96c-23 13 -46 19 -68 19c-27 0 -53 -7 -77 -22c-53 -35 -80 -94 -80 -177c0 -71 16 -133 49 -185s75 -78 128 -78c49 0 88 21 117 62c26 37 39 84 39 141zM296 533c77 0 138 -25 181 -76s65 -115 65 -193
c0 -77 -23 -142 -70 -195c-46 -53 -105 -80 -176 -80c-75 0 -136 24 -181 73s-67 114 -67 196c0 77 23 142 70 195s106 80 178 80z" />
    <glyph glyph-name="divide" unicode="&#xf7;" horiz-adv-x="714" 
d="M412 206c0 -29 -24 -55 -55 -55c-47 0 -71 60 -39 94c34 34 94 9 94 -39zM318 469c-20 21 -20 57 0 78c21 21 57 21 78 0s21 -57 0 -78s-57 -21 -78 0zM618 372v-30c0 -6 -3 -9 -10 -9h-502c-7 0 -10 3 -10 9v30c0 7 3 10 10 10h502c7 0 10 -3 10 -10z" />
    <glyph glyph-name="oslash" unicode="&#xf8;" horiz-adv-x="596" 
d="M307 31c43 0 78 15 106 46c35 39 52 92 52 157c0 55 -10 104 -29 147c-3 4 -5 4 -8 1l-238 -276c-4 -4 -4 -6 -1 -10c33 -43 72 -65 118 -65zM161 143c1 -2 2 -3 3 -3s3 1 4 2l239 278c3 3 3 5 0 9c-33 42 -74 63 -121 63c-45 0 -82 -18 -111 -54s-43 -84 -43 -144
s10 -110 29 -151zM489 445c37 -47 56 -108 56 -181c0 -77 -23 -142 -70 -195s-106 -80 -178 -80c-62 0 -113 17 -154 50c-4 4 -6 4 -9 1l-29 -32c-5 -5 -11 -8 -16 -8h-33c-3 0 -5 1 -5 4c0 1 1 3 2 4l52 61c3 3 3 5 0 9c-37 48 -55 108 -55 180c0 77 23 142 70 195
s106 80 177 80c63 0 115 -17 156 -51c3 -3 5 -3 8 0l28 33c5 5 9 7 14 7h36c3 0 5 -1 5 -4c0 -1 -1 -3 -2 -4l-51 -59c-5 -5 -5 -7 -2 -10z" />
    <glyph glyph-name="ugrave" unicode="&#xf9;" horiz-adv-x="613" 
d="M570 39c0 -10 -8 -17 -24 -21c-27 -6 -52 -14 -74 -24c-8 -4 -15 -6 -21 -6c-13 0 -20 8 -20 25v65c0 4 -3 4 -6 0c-33 -53 -94 -89 -163 -89c-53 0 -94 17 -121 50c-26 31 -39 80 -39 147v194c0 36 -4 59 -11 68c-5 6 -15 11 -32 16c-14 4 -21 10 -21 18
c0 11 8 19 24 22c23 5 49 13 76 24c7 3 14 4 19 4c13 0 20 -8 20 -24v-323c0 -81 35 -134 112 -134c37 0 68 12 92 36c19 19 32 47 39 84s11 99 11 184c0 52 -4 83 -11 93c-5 6 -15 11 -32 16c-14 4 -21 10 -21 19c0 11 8 18 24 21c22 5 47 13 76 24c7 3 13 4 18 4
c14 0 21 -8 21 -24v-367c0 -36 4 -59 11 -68c5 -7 16 -12 32 -16c14 -4 21 -10 21 -18zM335 614l-160 98c-4 3 -6 5 -6 7c0 5 3 7 10 7h71c15 0 28 -4 38 -13l123 -96c4 -3 6 -6 6 -7c0 -3 -2 -5 -7 -5h-43c-13 0 -23 3 -32 9z" />
    <glyph glyph-name="uacute" unicode="&#xfa;" horiz-adv-x="613" 
d="M570 39c0 -10 -8 -17 -24 -21c-27 -6 -52 -14 -74 -24c-8 -4 -15 -6 -21 -6c-13 0 -20 8 -20 25v65c0 4 -3 4 -6 0c-33 -53 -94 -89 -163 -89c-53 0 -94 17 -121 50c-26 31 -39 80 -39 147v194c0 36 -4 59 -11 68c-5 6 -15 11 -32 16c-14 4 -21 10 -21 18
c0 11 8 19 24 22c23 5 49 13 76 24c7 3 14 4 19 4c13 0 20 -8 20 -24v-323c0 -81 35 -134 112 -134c37 0 68 12 92 36c19 19 32 47 39 84s11 99 11 184c0 52 -4 83 -11 93c-5 6 -15 11 -32 16c-14 4 -21 10 -21 19c0 11 8 18 24 21c22 5 47 13 76 24c7 3 13 4 18 4
c14 0 21 -8 21 -24v-367c0 -36 4 -59 11 -68c5 -7 16 -12 32 -16c14 -4 21 -10 21 -18zM413 713l-157 -99c-8 -6 -18 -9 -31 -9h-45c-4 0 -6 2 -6 5c0 1 2 4 6 7l118 96c10 9 22 13 37 13h72c7 0 10 -2 10 -6c0 -3 -1 -5 -4 -7z" />
    <glyph glyph-name="ucircumflex" unicode="&#xfb;" horiz-adv-x="613" 
d="M570 39c0 -10 -8 -17 -24 -21c-27 -6 -52 -14 -74 -24c-8 -4 -15 -6 -21 -6c-13 0 -20 8 -20 25v65c0 4 -3 4 -6 0c-33 -53 -94 -89 -163 -89c-53 0 -94 17 -121 50c-26 31 -39 80 -39 147v194c0 36 -4 59 -11 68c-5 6 -15 11 -32 16c-14 4 -21 10 -21 18
c0 11 8 19 24 22c23 5 49 13 76 24c7 3 14 4 19 4c13 0 20 -8 20 -24v-323c0 -81 35 -134 112 -134c37 0 68 12 92 36c19 19 32 47 39 84s11 99 11 184c0 52 -4 83 -11 93c-5 6 -15 11 -32 16c-14 4 -21 10 -21 19c0 11 8 18 24 21c22 5 47 13 76 24c7 3 13 4 18 4
c14 0 21 -8 21 -24v-367c0 -36 4 -59 11 -68c5 -7 16 -12 32 -16c14 -4 21 -10 21 -18zM205 600h-36c-3 0 -5 1 -5 3c0 1 1 3 3 6l89 110c4 5 9 7 16 7h49c7 0 13 -2 17 -7l89 -110c2 -2 3 -4 3 -5c0 -3 -2 -4 -5 -4h-38c-4 0 -8 2 -13 7l-74 78c-3 3 -5 3 -9 -1l-73 -78
c-4 -4 -8 -6 -13 -6z" />
    <glyph glyph-name="udieresis" unicode="&#xfc;" horiz-adv-x="613" 
d="M570 39c0 -10 -8 -17 -24 -21c-27 -6 -52 -14 -74 -24c-8 -4 -15 -6 -21 -6c-13 0 -20 8 -20 25v65c0 4 -3 4 -6 0c-33 -53 -94 -89 -163 -89c-53 0 -94 17 -121 50c-26 31 -39 80 -39 147v194c0 36 -4 59 -11 68c-5 6 -15 11 -32 16c-14 4 -21 10 -21 18
c0 11 8 19 24 22c23 5 49 13 76 24c7 3 14 4 19 4c13 0 20 -8 20 -24v-323c0 -81 35 -134 112 -134c37 0 68 12 92 36c19 19 32 47 39 84s11 99 11 184c0 52 -4 83 -11 93c-5 6 -15 11 -32 16c-14 4 -21 10 -21 19c0 11 8 18 24 21c22 5 47 13 76 24c7 3 13 4 18 4
c14 0 21 -8 21 -24v-367c0 -36 4 -59 11 -68c5 -7 16 -12 32 -16c14 -4 21 -10 21 -18zM351 638c-5 5 -8 16 -8 34c0 35 7 42 42 42c16 0 27 -3 34 -8c5 -5 7 -17 7 -34c0 -18 -2 -29 -7 -34c-7 -5 -18 -8 -35 -8s-28 3 -33 8zM182 638c-5 5 -8 16 -8 34c0 35 7 42 42 42
c16 0 27 -3 34 -8c5 -7 8 -18 8 -35s-3 -28 -8 -33c-7 -5 -18 -8 -35 -8s-28 3 -33 8z" />
    <glyph glyph-name="yacute" unicode="&#xfd;" horiz-adv-x="563" 
d="M550 507c0 -11 -7 -16 -20 -22c-16 -11 -30 -25 -42 -42c-9 -13 -21 -35 -35 -67l-147 -351c-42 -101 -86 -166 -132 -195c-24 -15 -48 -23 -72 -23c-43 0 -69 25 -69 69c0 26 10 39 30 39c7 0 18 -6 32 -19c15 -13 29 -19 43 -19c19 0 38 12 58 36c20 23 36 49 47 78
c4 11 4 10 1 18l-140 367c-22 55 -38 87 -47 96c-5 5 -14 11 -27 18c-9 5 -14 11 -14 16c0 11 10 16 29 16h143c15 0 22 -5 22 -16c0 -18 -44 -19 -44 -57c0 -16 6 -40 18 -72c9 -25 44 -115 104 -268c1 -2 2 -3 3 -3c2 0 3 1 4 3l76 195c28 75 42 120 42 135
c0 50 -48 44 -48 67c0 11 9 16 26 16h131c19 0 28 -5 28 -15zM405 713l-157 -99c-8 -6 -18 -9 -31 -9h-45c-4 0 -6 2 -6 5c0 1 2 4 6 7l118 96c10 9 22 13 37 13h72c7 0 10 -2 10 -6c0 -3 -1 -5 -4 -7z" />
    <glyph glyph-name="thorn" unicode="&#xfe;" horiz-adv-x="614" 
d="M363 533c49 0 91 -16 128 -48c50 -45 75 -112 75 -201c0 -71 -18 -135 -54 -192c-41 -64 -109 -104 -184 -104c-53 0 -98 15 -133 46c-3 2 -5 3 -7 3c-3 0 -5 -2 -5 -7v-57c0 -57 5 -93 15 -107c6 -9 16 -18 30 -25c10 -5 15 -10 15 -17c0 -11 -8 -17 -24 -17h-148
c-16 0 -24 6 -24 17c0 7 5 12 15 17c14 7 24 16 30 25c11 18 16 54 16 107v619c0 38 -4 62 -12 71c-5 7 -16 12 -31 16s-22 10 -22 18c0 10 9 17 26 21c27 6 52 14 76 24c9 4 16 6 20 6c12 0 18 -8 18 -24v-275c0 -5 2 -7 5 -7s5 2 8 5c47 57 103 86 167 86zM337 29
c91 0 151 86 151 222c0 67 -15 121 -45 162s-68 62 -113 62c-87 0 -147 -79 -147 -218c0 -144 61 -228 154 -228z" />
    <glyph glyph-name="ydieresis" unicode="&#xff;" horiz-adv-x="563" 
d="M550 507c0 -11 -7 -16 -20 -22c-16 -11 -30 -25 -42 -42c-9 -13 -21 -35 -35 -67l-147 -351c-42 -101 -86 -166 -132 -195c-24 -15 -48 -23 -72 -23c-43 0 -69 25 -69 69c0 26 10 39 30 39c7 0 18 -6 32 -19c15 -13 29 -19 43 -19c19 0 38 12 58 36c20 23 36 49 47 78
c4 11 4 10 1 18l-140 367c-22 55 -38 87 -47 96c-5 5 -14 11 -27 18c-9 5 -14 11 -14 16c0 11 10 16 29 16h143c15 0 22 -5 22 -16c0 -18 -44 -19 -44 -57c0 -16 6 -40 18 -72c9 -25 44 -115 104 -268c1 -2 2 -3 3 -3c2 0 3 1 4 3l76 195c28 75 42 120 42 135
c0 50 -48 44 -48 67c0 11 9 16 26 16h131c19 0 28 -5 28 -15zM335 638c-5 5 -8 16 -8 34c0 35 7 42 42 42c16 0 27 -3 34 -8c5 -5 7 -17 7 -34c0 -18 -2 -29 -7 -34c-7 -5 -18 -8 -35 -8s-28 3 -33 8zM166 638c-5 5 -8 16 -8 34c0 35 7 42 42 42c16 0 27 -3 34 -8
c5 -7 8 -18 8 -35s-3 -28 -8 -33c-7 -5 -18 -8 -35 -8s-28 3 -33 8z" />
    <glyph glyph-name="Amacron" unicode="&#x100;" horiz-adv-x="728" 
d="M231 286h244c5 0 8 2 8 6c0 1 -1 4 -2 7l-117 303c-1 4 -3 6 -4 6c-2 0 -4 -2 -5 -6l-130 -304c-1 -3 -2 -5 -2 -6c0 -4 3 -6 8 -6zM700 32c9 -5 14 -10 14 -17c0 -10 -9 -15 -26 -15h-142c-15 0 -22 5 -22 15c0 6 5 12 15 17c17 9 26 20 26 33s-8 40 -24 80l-36 91
c-2 6 -7 9 -16 9h-278c-6 0 -10 -3 -12 -8c-35 -81 -52 -133 -52 -157c0 -22 11 -38 32 -48c9 -4 13 -9 13 -16c0 -11 -8 -16 -25 -16h-129c-18 0 -27 5 -27 14c0 13 10 13 20 23c17 11 31 25 41 40c13 19 25 41 36 66c161 360 245 550 253 571c2 5 6 8 11 8h21
c6 0 10 -3 12 -8c2 -7 38 -101 107 -282s106 -278 111 -289c21 -49 37 -80 49 -93c5 -5 15 -11 28 -18zM520 870v-33c0 -5 -3 -8 -9 -8h-261c-5 0 -8 3 -8 8v33c0 5 3 8 8 8h261c6 0 9 -3 9 -8z" />
    <glyph glyph-name="amacron" unicode="&#x101;" horiz-adv-x="517" 
d="M350 274v15c0 3 -1 4 -3 4c-1 0 -3 -1 -4 -2c-15 -12 -43 -27 -84 -45c-41 -17 -69 -31 -85 -41c-36 -23 -54 -52 -54 -89c0 -51 36 -83 87 -83c47 0 94 27 119 80c16 33 24 87 24 161zM468 56c9 0 14 -5 14 -15c0 -24 -30 -52 -63 -52c-39 0 -61 27 -66 81
c0 3 -1 4 -2 4s-2 -1 -4 -4c-32 -52 -94 -81 -158 -81c-42 0 -78 12 -109 35s-46 54 -46 93c0 42 20 77 59 104c21 15 52 29 94 44s68 24 79 29c56 26 84 62 84 107c0 52 -34 91 -91 91c-31 0 -57 -9 -80 -28c-30 -24 -55 -70 -63 -81c-6 -10 -13 -15 -21 -15
c-15 0 -22 15 -22 44c0 34 5 58 16 73c13 16 38 29 75 38c24 7 51 10 82 10c61 0 108 -18 141 -55c27 -31 41 -82 41 -155c0 -17 -1 -45 -2 -84s-1 -68 -1 -88c0 -31 0 -41 3 -64c4 -23 12 -33 25 -33c3 0 12 2 15 2zM384 706v-33c0 -5 -3 -8 -9 -8h-261c-5 0 -8 3 -8 8v33
c0 5 3 8 8 8h261c6 0 9 -3 9 -8z" />
    <glyph glyph-name="Abreve" unicode="&#x102;" horiz-adv-x="728" 
d="M231 286h244c5 0 8 2 8 6c0 1 -1 4 -2 7l-117 303c-1 4 -3 6 -4 6c-2 0 -4 -2 -5 -6l-130 -304c-1 -3 -2 -5 -2 -6c0 -4 3 -6 8 -6zM700 32c9 -5 14 -10 14 -17c0 -10 -9 -15 -26 -15h-142c-15 0 -22 5 -22 15c0 6 5 12 15 17c17 9 26 20 26 33s-8 40 -24 80l-36 91
c-2 6 -7 9 -16 9h-278c-6 0 -10 -3 -12 -8c-35 -81 -52 -133 -52 -157c0 -22 11 -38 32 -48c9 -4 13 -9 13 -16c0 -11 -8 -16 -25 -16h-129c-18 0 -27 5 -27 14c0 13 10 13 20 23c17 11 31 25 41 40c13 19 25 41 36 66c161 360 245 550 253 571c2 5 6 8 11 8h21
c6 0 10 -3 12 -8c2 -7 38 -101 107 -282s106 -278 111 -289c21 -49 37 -80 49 -93c5 -5 15 -11 28 -18zM265 893c0 13 5 20 16 20c8 0 13 -5 16 -15c13 -44 41 -66 85 -66c45 0 73 22 86 66c3 10 8 15 16 15c11 0 16 -7 16 -20c0 -61 -51 -106 -118 -106s-117 45 -117 106z
" />
    <glyph glyph-name="abreve" unicode="&#x103;" horiz-adv-x="517" 
d="M350 274v15c0 3 -1 4 -3 4c-1 0 -3 -1 -4 -2c-15 -12 -43 -27 -84 -45c-41 -17 -69 -31 -85 -41c-36 -23 -54 -52 -54 -89c0 -51 36 -83 87 -83c47 0 94 27 119 80c16 33 24 87 24 161zM468 56c9 0 14 -5 14 -15c0 -24 -30 -52 -63 -52c-39 0 -61 27 -66 81
c0 3 -1 4 -2 4s-2 -1 -4 -4c-32 -52 -94 -81 -158 -81c-42 0 -78 12 -109 35s-46 54 -46 93c0 42 20 77 59 104c21 15 52 29 94 44s68 24 79 29c56 26 84 62 84 107c0 52 -34 91 -91 91c-31 0 -57 -9 -80 -28c-30 -24 -55 -70 -63 -81c-6 -10 -13 -15 -21 -15
c-15 0 -22 15 -22 44c0 34 5 58 16 73c13 16 38 29 75 38c24 7 51 10 82 10c61 0 108 -18 141 -55c27 -31 41 -82 41 -155c0 -17 -1 -45 -2 -84s-1 -68 -1 -88c0 -31 0 -41 3 -64c4 -23 12 -33 25 -33c3 0 12 2 15 2zM124 707c0 13 5 20 16 20c8 0 13 -5 16 -15
c13 -44 41 -66 85 -66c45 0 73 22 86 66c3 10 9 15 16 15c11 0 16 -7 16 -20c0 -61 -51 -106 -118 -106s-117 45 -117 106z" />
    <glyph glyph-name="Aogonek" unicode="&#x104;" horiz-adv-x="728" 
d="M699 32c10 -5 15 -10 15 -17c0 -10 -9 -15 -26 -15h-24c-73 0 -115 -38 -115 -81c0 -37 30 -67 66 -67c17 0 43 11 46 11c7 0 10 -3 10 -9c0 -5 -3 -10 -8 -15c-22 -21 -50 -32 -85 -32c-57 0 -99 39 -99 92c0 51 38 102 107 126l-81 211c-3 6 -8 9 -15 9h-279
c-6 0 -10 -3 -12 -8c-34 -80 -51 -132 -51 -157c0 -23 10 -39 31 -48c9 -4 14 -10 14 -17c0 -10 -9 -15 -26 -15h-129c-18 0 -27 5 -27 14s9 17 20 23c18 13 32 26 42 40c7 10 18 32 35 66l135 303l119 268c3 5 6 8 11 8h21c5 0 9 -3 11 -8l107 -282
c70 -181 107 -278 112 -289c19 -47 36 -78 49 -93c7 -7 15 -13 26 -18zM230 286h248c4 0 6 1 6 4c0 1 -1 3 -2 7l-119 310c-1 3 -5 3 -6 0l-133 -311c-1 -2 -1 -4 -1 -5c0 -3 2 -5 7 -5z" />
    <glyph glyph-name="aogonek" unicode="&#x105;" horiz-adv-x="522" 
d="M491 -137c7 0 10 -3 10 -10c0 -9 -10 -19 -29 -30s-40 -16 -63 -16c-57 0 -100 40 -100 93c0 40 22 76 67 107c-13 13 -20 35 -23 64c0 2 -1 3 -2 3s-2 -1 -3 -3c-33 -53 -94 -82 -159 -82c-42 0 -78 11 -109 34s-46 55 -46 94c0 42 20 77 59 104c22 15 53 30 92 43
s66 23 79 29c57 26 86 62 86 108c0 51 -31 91 -92 91c-43 0 -79 -19 -108 -57c-11 -15 -23 -37 -30 -48c-5 -9 -14 -19 -25 -19c-15 0 -22 15 -22 44c0 36 5 60 16 73c13 16 35 28 66 36s61 12 90 12c63 0 109 -17 138 -52c30 -34 45 -73 45 -118c0 -25 -1 -64 -2 -116
c-1 -51 -1 -91 -1 -119c0 -49 9 -74 27 -74c3 0 13 2 16 2c10 0 15 -5 15 -15c-3 -25 -23 -38 -51 -52c-35 -19 -53 -43 -53 -72c0 -39 29 -65 64 -65c21 0 45 11 48 11zM327 113c7 16 13 34 16 53c3 20 5 37 6 51c1 15 1 36 1 64v8c0 3 -1 4 -3 4c-1 0 -3 -1 -4 -2
c-15 -12 -43 -27 -84 -45c-41 -17 -69 -31 -85 -41c-36 -23 -54 -52 -54 -89c0 -51 36 -83 87 -83c47 0 95 27 120 80z" />
    <glyph glyph-name="Cacute" unicode="&#x106;" horiz-adv-x="687" 
d="M611 180c19 0 23 -11 23 -46c0 -57 -20 -96 -61 -115c-41 -20 -95 -30 -160 -30c-119 0 -216 44 -275 112c-59 69 -90 158 -90 254c0 120 51 226 142 295c65 51 139 76 221 76c63 0 117 -10 161 -31c21 -10 35 -22 41 -36s9 -38 9 -73c0 -40 -6 -49 -21 -49
c-23 -6 -35 57 -69 91c-37 38 -84 57 -139 57c-73 0 -134 -30 -185 -91c-50 -61 -75 -138 -75 -232c0 -97 26 -176 78 -239c52 -62 115 -93 189 -93c75 0 133 36 176 107c18 26 17 43 35 43zM494 900l-157 -99c-8 -6 -18 -9 -31 -9h-45c-4 0 -6 2 -6 5c0 2 2 4 6 7l118 96
c10 9 22 13 37 13h72c7 0 10 -2 10 -6c0 -3 -1 -5 -4 -7z" />
    <glyph glyph-name="cacute" unicode="&#x107;" horiz-adv-x="509" 
d="M459 84c-35 -56 -108 -96 -188 -96c-75 0 -134 29 -177 88c-30 41 -45 93 -45 156c0 96 39 194 115 251c43 33 94 50 153 50c43 0 96 -12 119 -36c12 -12 18 -35 18 -68c0 -38 -8 -57 -24 -57c-20 -6 -29 36 -46 59c-25 37 -59 55 -101 55c-40 0 -74 -17 -102 -51
c-35 -42 -53 -101 -53 -177c0 -53 11 -98 33 -134c31 -51 76 -76 136 -76c49 0 92 20 127 59c11 12 20 18 27 18c11 0 17 -6 17 -18c0 -6 -3 -14 -9 -23zM389 713l-157 -99c-8 -6 -18 -9 -31 -9h-45c-4 0 -6 2 -6 5c0 1 2 4 6 7l118 96c10 9 22 13 37 13h72c7 0 10 -2 10 -6
c0 -3 -1 -5 -4 -7z" />
    <glyph glyph-name="Ccircumflex" unicode="&#x108;" horiz-adv-x="687" 
d="M611 180c19 0 23 -11 23 -46c0 -57 -20 -96 -61 -115c-41 -20 -95 -30 -160 -30c-119 0 -216 44 -275 112c-59 69 -90 158 -90 254c0 120 51 226 142 295c65 51 139 76 221 76c63 0 117 -10 161 -31c21 -10 35 -22 41 -36s9 -38 9 -73c0 -40 -6 -49 -21 -49
c-23 -6 -35 57 -69 91c-37 38 -84 57 -139 57c-73 0 -134 -30 -185 -91c-50 -61 -75 -138 -75 -232c0 -97 26 -176 78 -239c52 -62 115 -93 189 -93c75 0 133 36 176 107c18 26 17 43 35 43zM293 787h-36c-3 0 -5 1 -5 3c0 1 1 3 3 6l89 110c4 5 9 7 16 7h49
c7 0 13 -2 17 -7l89 -110c2 -2 3 -4 3 -5c0 -3 -2 -4 -5 -4h-38c-4 0 -8 2 -13 7l-74 78c-3 3 -5 3 -9 -1l-73 -78c-4 -4 -8 -6 -13 -6z" />
    <glyph glyph-name="ccircumflex" unicode="&#x109;" horiz-adv-x="509" 
d="M459 84c-35 -56 -108 -96 -188 -96c-75 0 -134 29 -177 88c-30 41 -45 93 -45 156c0 96 39 194 115 251c43 33 94 50 153 50c43 0 96 -12 119 -36c12 -12 18 -35 18 -68c0 -38 -8 -57 -24 -57c-20 -6 -29 36 -46 59c-25 37 -59 55 -101 55c-40 0 -74 -17 -102 -51
c-35 -42 -53 -101 -53 -177c0 -53 11 -98 33 -134c31 -51 76 -76 136 -76c49 0 92 20 127 59c11 12 20 18 27 18c11 0 17 -6 17 -18c0 -6 -3 -14 -9 -23zM188 600h-36c-3 0 -5 1 -5 3c0 1 1 3 3 6l89 110c4 5 9 7 16 7h49c7 0 13 -2 17 -7l89 -110c2 -2 3 -4 3 -5
c0 -3 -2 -4 -5 -4h-38c-4 0 -8 2 -13 7l-74 78c-3 3 -5 3 -9 -1l-73 -78c-4 -4 -8 -6 -13 -6z" />
    <glyph glyph-name="Cdotaccent" unicode="&#x10a;" horiz-adv-x="687" 
d="M611 180c19 0 23 -11 23 -46c0 -57 -20 -96 -61 -115c-41 -20 -95 -30 -160 -30c-119 0 -216 44 -275 112c-59 69 -90 158 -90 254c0 120 51 226 142 295c65 51 139 76 221 76c63 0 117 -10 161 -31c21 -10 35 -22 41 -36s9 -38 9 -73c0 -40 -6 -49 -21 -49
c-23 -6 -35 57 -69 91c-37 38 -84 57 -139 57c-73 0 -134 -30 -185 -91c-50 -61 -75 -138 -75 -232c0 -97 26 -176 78 -239c52 -62 115 -93 189 -93c75 0 133 36 176 107c18 26 17 43 35 43zM348 797c-5 5 -8 16 -8 34c0 35 7 42 42 42c16 0 27 -3 34 -8c5 -7 8 -18 8 -35
s-3 -28 -8 -33c-7 -5 -18 -8 -35 -8s-28 3 -33 8z" />
    <glyph glyph-name="cdotaccent" unicode="&#x10b;" horiz-adv-x="509" 
d="M459 84c-35 -56 -108 -96 -188 -96c-75 0 -134 29 -177 88c-30 41 -45 93 -45 156c0 96 39 194 115 251c43 33 94 50 153 50c43 0 96 -12 119 -36c12 -12 18 -35 18 -68c0 -38 -8 -57 -24 -57c-20 -6 -29 36 -46 59c-25 37 -59 55 -101 55c-40 0 -74 -17 -102 -51
c-35 -42 -53 -101 -53 -177c0 -53 11 -98 33 -134c31 -51 76 -76 136 -76c49 0 92 20 127 59c11 12 20 18 27 18c11 0 17 -6 17 -18c0 -6 -3 -14 -9 -23zM310 640c-7 -5 -18 -8 -34 -8c-33 0 -41 8 -41 41c0 16 3 27 8 34c5 5 16 7 33 7s29 -2 34 -7s7 -17 7 -34
s-2 -28 -7 -33z" />
    <glyph glyph-name="Ccaron" unicode="&#x10c;" horiz-adv-x="687" 
d="M611 180c19 0 23 -11 23 -46c0 -57 -20 -96 -61 -115c-41 -20 -95 -30 -160 -30c-119 0 -216 44 -275 112c-59 69 -90 158 -90 254c0 120 51 226 142 295c65 51 139 76 221 76c63 0 117 -10 161 -31c21 -10 35 -22 41 -36s9 -38 9 -73c0 -40 -6 -49 -21 -49
c-23 -6 -35 57 -69 91c-37 38 -84 57 -139 57c-73 0 -134 -30 -185 -91c-50 -61 -75 -138 -75 -232c0 -97 26 -176 78 -239c52 -62 115 -93 189 -93c75 0 133 36 176 107c18 26 17 43 35 43zM481 913h36c3 0 5 -1 5 -3c0 -1 -1 -3 -3 -6l-89 -110c-4 -5 -9 -7 -16 -7h-49
c-7 0 -13 2 -17 7l-89 110c-2 2 -3 4 -3 5c0 3 2 4 5 4h38c4 0 8 -2 13 -7l74 -78c3 -3 5 -3 9 1l73 78c4 4 8 6 13 6z" />
    <glyph glyph-name="ccaron" unicode="&#x10d;" horiz-adv-x="509" 
d="M459 84c-35 -56 -108 -96 -188 -96c-75 0 -134 29 -177 88c-30 41 -45 93 -45 156c0 96 39 194 115 251c43 33 94 50 153 50c43 0 96 -12 119 -36c12 -12 18 -35 18 -68c0 -38 -8 -57 -24 -57c-20 -6 -29 36 -46 59c-25 37 -59 55 -101 55c-40 0 -74 -17 -102 -51
c-35 -42 -53 -101 -53 -177c0 -53 11 -98 33 -134c31 -51 76 -76 136 -76c49 0 92 20 127 59c11 12 20 18 27 18c11 0 17 -6 17 -18c0 -6 -3 -14 -9 -23zM378 726h36c3 0 5 -1 5 -3c0 -1 -1 -3 -3 -6l-89 -110c-4 -5 -9 -7 -16 -7h-49c-7 0 -13 2 -17 7l-89 110
c-2 2 -3 4 -3 5c0 3 2 4 5 4h38c4 0 8 -2 13 -7l74 -78c3 -3 5 -3 9 1l73 78c4 4 8 6 13 6z" />
    <glyph glyph-name="Dcaron" unicode="&#x10e;" horiz-adv-x="748" 
d="M531 120c58 58 87 139 87 244c0 59 -12 114 -37 166s-65 91 -122 116c-21 9 -44 15 -71 19c-27 5 -51 7 -73 8s-57 1 -106 1c-14 0 -21 -6 -21 -18v-501c0 -39 1 -65 2 -77c1 -11 5 -20 12 -26c7 -7 25 -11 52 -11h26c112 0 196 26 251 79zM597 618
c69 -61 103 -144 103 -251c0 -95 -34 -182 -99 -253c-65 -69 -178 -114 -317 -114h-203c-18 0 -27 6 -27 17c0 5 6 11 17 18c12 5 21 13 28 23c9 15 13 49 13 104v402c0 42 -1 69 -4 81c-3 13 -10 22 -23 29c-5 3 -32 12 -27 23c0 11 9 17 27 17h179c90 0 159 -9 208 -26
s91 -40 125 -70zM431 913h36c3 0 5 -1 5 -3c0 -1 -1 -3 -3 -6l-89 -110c-4 -5 -9 -7 -16 -7h-49c-7 0 -13 2 -17 7l-89 110c-2 2 -3 4 -3 5c0 3 2 4 5 4h38c4 0 8 -2 13 -7l74 -78c3 -3 5 -3 9 1l73 78c4 4 8 6 13 6z" />
    <glyph glyph-name="dcaron" unicode="&#x10f;" horiz-adv-x="662" 
d="M283 47c88 0 147 77 147 217c0 145 -62 228 -154 228c-46 0 -83 -21 -110 -63c-27 -41 -41 -96 -41 -163c0 -65 15 -118 45 -159c30 -40 68 -60 113 -60zM547 57c15 -3 22 -9 22 -18s-8 -16 -25 -20c-28 -7 -51 -14 -69 -22c-13 -6 -22 -9 -27 -9c-12 0 -18 8 -18 24v61
c0 5 -1 7 -4 7c-1 0 -4 -2 -7 -5c-49 -57 -105 -86 -168 -86c-65 0 -115 24 -151 73c-35 49 -53 107 -53 176c0 81 22 150 65 208c44 58 100 87 168 87c48 0 94 -15 138 -46c3 -3 6 -4 8 -4c3 0 4 2 4 5v106c0 38 -4 61 -11 69c-6 7 -16 13 -31 17s-23 10 -23 17
c0 11 5 16 26 21c30 7 55 15 76 24c9 4 16 6 20 6c12 0 18 -8 18 -24v-593c0 -30 4 -49 11 -57c6 -7 16 -12 31 -17zM678 706c17 -18 26 -41 26 -68c0 -31 -10 -61 -31 -91c-23 -33 -43 -49 -61 -49c-4 0 -8 2 -11 5c-5 5 -8 9 7 21c12 9 22 21 31 34c7 13 11 24 11 35
c0 16 -7 24 -31 47c-16 13 -24 26 -24 37c0 8 6 18 19 30c13 13 23 19 30 19c11 0 22 -7 34 -20z" />
    <glyph glyph-name="Dcroat" unicode="&#x110;" horiz-adv-x="819" 
d="M665 618c70 -61 105 -144 105 -249c0 -96 -33 -183 -100 -254c-65 -71 -179 -115 -319 -115h-201c-19 0 -28 5 -28 16c0 7 6 13 17 19c13 6 22 14 28 25c9 15 14 48 14 101v173c0 5 -3 7 -8 7c-23 0 -40 0 -53 -1c-3 0 -12 -1 -27 -2c-14 -1 -25 -2 -33 -2
c-18 0 -27 5 -27 14c0 3 1 10 4 19c5 19 13 26 36 26c11 0 41 -4 54 -4c14 -1 29 -1 46 -1c5 0 8 3 8 8v166c0 41 -1 68 -4 80c-3 13 -10 23 -23 30c-11 5 -27 9 -27 23c0 11 8 17 24 17h181c91 0 160 -9 209 -26s90 -40 124 -70zM599 122c59 56 88 135 88 236
c0 52 -8 100 -31 155c-21 56 -67 105 -130 132c-31 13 -64 21 -99 24c-35 4 -86 6 -151 6c-13 0 -19 -6 -19 -19v-258c0 -5 3 -8 10 -8c29 0 50 0 64 1c7 0 20 1 37 2c17 2 31 3 40 3c19 0 29 -5 29 -16c0 -3 -1 -8 -3 -16c-5 -21 -14 -28 -38 -28c-13 0 -54 4 -71 4
c-17 1 -36 1 -59 1c-6 0 -9 -2 -9 -7v-217c0 -44 2 -56 14 -65c9 -8 31 -12 67 -12h12c110 0 193 27 249 82z" />
    <glyph glyph-name="dslash" unicode="&#x111;" horiz-adv-x="613" 
d="M505 644h104c7 0 10 -3 10 -10v-21c0 -7 -3 -10 -10 -10h-104v-472c0 -30 4 -49 11 -57c6 -7 16 -12 31 -17s22 -11 22 -18c0 -11 -4 -15 -25 -20c-27 -7 -53 -15 -78 -26c-8 -3 -14 -5 -17 -5c-13 0 -19 8 -19 24v60c0 5 -1 8 -4 8c-1 0 -4 -2 -7 -5
c-49 -57 -105 -86 -168 -86c-65 0 -115 24 -151 73c-35 49 -53 107 -53 176c0 81 22 151 66 208c45 58 100 87 167 87c52 0 99 -16 140 -48c3 -2 5 -3 6 -3c3 0 4 2 4 7v114h-139c-7 0 -10 3 -10 10v21c0 7 3 10 10 10h139v83c0 5 2 7 7 8l54 11c3 1 5 1 7 1c5 0 7 -2 7 -6
v-97zM283 47c88 0 147 77 147 217c0 145 -63 228 -154 228c-92 0 -151 -91 -151 -228c0 -63 15 -115 45 -156c31 -41 68 -61 113 -61z" />
    <glyph glyph-name="Emacron" unicode="&#x112;" horiz-adv-x="621" 
d="M551 185c15 0 23 -8 23 -23c0 -7 -3 -20 -8 -40c-5 -19 -12 -58 -17 -75c-6 -27 -21 -59 -53 -55c-4 0 -23 1 -58 4s-70 4 -107 4h-248c-19 0 -28 5 -28 16c0 5 6 11 17 18c12 7 22 16 29 26c9 15 13 49 13 101v411c0 38 -1 63 -4 74s-10 20 -23 27c-11 7 -27 10 -27 24
c0 11 8 17 24 17h257c38 0 74 1 109 4s54 4 57 4c23 0 34 -9 35 -27c1 -11 2 -48 2 -63c1 -31 2 -52 2 -63c0 -20 -7 -30 -20 -30c-12 0 -21 8 -27 23l-9 23l-10 25c-4 9 -18 27 -34 38c-23 17 -80 25 -169 25h-67c-13 0 -19 -6 -19 -18v-238c0 -15 5 -20 21 -20
c36 0 70 1 103 3c67 3 103 5 108 5c24 0 36 -5 36 -15c0 -8 -4 -14 -4 -18c-5 -24 -13 -27 -40 -27c-11 0 -29 1 -54 2c-24 2 -43 3 -56 3c-51 1 -85 2 -102 2c-8 0 -12 -4 -12 -13v-213c0 -43 5 -67 14 -74c11 -8 39 -12 84 -12c27 0 53 1 77 4c41 5 70 15 88 30
c19 15 41 43 66 85c10 17 20 26 31 26zM445 870v-33c0 -5 -3 -8 -9 -8h-261c-5 0 -8 3 -8 8v33c0 5 3 8 8 8h261c6 0 9 -3 9 -8z" />
    <glyph glyph-name="emacron" unicode="&#x113;" horiz-adv-x="542" 
d="M136 329c0 -6 3 -9 9 -9h179c65 0 92 15 92 64c0 27 -11 52 -34 75c-22 23 -52 34 -89 34c-34 0 -64 -11 -89 -33c-51 -44 -68 -96 -68 -131zM489 108c0 -22 -23 -49 -70 -80c-39 -26 -84 -39 -134 -39c-68 0 -125 24 -170 71c-45 48 -67 110 -67 187s24 143 71 200
s108 86 182 86c57 0 105 -18 143 -55c37 -37 56 -79 56 -126c0 -52 -20 -72 -77 -72h-283c-7 0 -11 -3 -11 -10c0 -62 13 -112 39 -149c35 -51 80 -77 135 -77c33 0 64 8 92 25c24 15 46 38 58 50c18 18 36 6 36 -11zM426 706v-33c0 -5 -3 -8 -9 -8h-261c-5 0 -8 3 -8 8v33
c0 5 3 8 8 8h261c6 0 9 -3 9 -8z" />
    <glyph glyph-name="Ebreve" unicode="&#x114;" horiz-adv-x="621" 
d="M551 185c15 0 23 -8 23 -23c0 -7 -3 -20 -8 -40c-5 -19 -12 -58 -17 -75c-6 -27 -21 -59 -53 -55c-4 0 -23 1 -58 4s-70 4 -107 4h-248c-19 0 -28 5 -28 16c0 5 6 11 17 18c12 7 22 16 29 26c9 15 13 49 13 101v411c0 38 -1 63 -4 74s-10 20 -23 27c-11 7 -27 10 -27 24
c0 11 8 17 24 17h257c38 0 74 1 109 4s54 4 57 4c23 0 34 -9 35 -27c1 -11 2 -48 2 -63c1 -31 2 -52 2 -63c0 -20 -7 -30 -20 -30c-12 0 -21 8 -27 23l-9 23l-10 25c-4 9 -18 27 -34 38c-23 17 -80 25 -169 25h-67c-13 0 -19 -6 -19 -18v-238c0 -15 5 -20 21 -20
c36 0 70 1 103 3c67 3 103 5 108 5c24 0 36 -5 36 -15c0 -8 -4 -14 -4 -18c-5 -24 -13 -27 -40 -27c-11 0 -29 1 -54 2c-24 2 -43 3 -56 3c-51 1 -85 2 -102 2c-8 0 -12 -4 -12 -13v-213c0 -43 5 -67 14 -74c11 -8 39 -12 84 -12c27 0 53 1 77 4c41 5 70 15 88 30
c19 15 41 43 66 85c10 17 20 26 31 26zM196 893c0 13 5 20 16 20c8 0 13 -5 16 -15c13 -44 41 -66 85 -66c45 0 73 22 86 66c3 10 9 15 16 15c11 0 16 -7 16 -20c0 -61 -51 -106 -118 -106s-117 45 -117 106z" />
    <glyph glyph-name="ebreve" unicode="&#x115;" horiz-adv-x="542" 
d="M136 329c0 -6 3 -9 9 -9h179c65 0 92 15 92 64c0 27 -11 52 -34 75c-22 23 -52 34 -89 34c-34 0 -64 -11 -89 -33c-51 -44 -68 -96 -68 -131zM489 108c0 -22 -23 -49 -70 -80c-39 -26 -84 -39 -134 -39c-68 0 -125 24 -170 71c-45 48 -67 110 -67 187s24 143 71 200
s108 86 182 86c57 0 105 -18 143 -55c37 -37 56 -79 56 -126c0 -52 -20 -72 -77 -72h-283c-7 0 -11 -3 -11 -10c0 -62 13 -112 39 -149c35 -51 80 -77 135 -77c33 0 64 8 92 25c24 15 46 38 58 50c18 18 36 6 36 -11zM172 707c0 13 5 20 16 20c8 0 13 -5 16 -15
c13 -44 41 -66 85 -66c45 0 73 22 86 66c3 10 9 15 16 15c11 0 16 -7 16 -20c0 -61 -51 -106 -118 -106s-117 45 -117 106z" />
    <glyph glyph-name="Edotaccent" unicode="&#x116;" horiz-adv-x="621" 
d="M551 185c15 0 23 -8 23 -23c0 -7 -3 -20 -8 -40c-5 -19 -12 -58 -17 -75c-6 -27 -21 -59 -53 -55c-4 0 -23 1 -58 4s-70 4 -107 4h-248c-19 0 -28 5 -28 16c0 5 6 11 17 18c12 7 22 16 29 26c9 15 13 49 13 101v411c0 38 -1 63 -4 74s-10 20 -23 27c-11 7 -27 10 -27 24
c0 11 8 17 24 17h257c38 0 74 1 109 4s54 4 57 4c23 0 34 -9 35 -27c1 -11 2 -48 2 -63c1 -31 2 -52 2 -63c0 -20 -7 -30 -20 -30c-12 0 -21 8 -27 23l-9 23l-10 25c-4 9 -18 27 -34 38c-23 17 -80 25 -169 25h-67c-13 0 -19 -6 -19 -18v-238c0 -15 5 -20 21 -20
c36 0 70 1 103 3c67 3 103 5 108 5c24 0 36 -5 36 -15c0 -8 -4 -14 -4 -18c-5 -24 -13 -27 -40 -27c-11 0 -29 1 -54 2c-24 2 -43 3 -56 3c-51 1 -85 2 -102 2c-8 0 -12 -4 -12 -13v-213c0 -43 5 -67 14 -74c11 -8 39 -12 84 -12c27 0 53 1 77 4c41 5 70 15 88 30
c19 15 41 43 66 85c10 17 20 26 31 26zM274 797c-5 5 -8 16 -8 34c0 35 7 42 42 42c16 0 27 -3 34 -8c5 -7 8 -18 8 -35s-3 -28 -8 -33c-7 -5 -18 -8 -35 -8s-28 3 -33 8z" />
    <glyph glyph-name="edotaccent" unicode="&#x117;" horiz-adv-x="542" 
d="M136 329c0 -6 3 -9 9 -9h179c65 0 92 15 92 64c0 27 -11 52 -34 75c-22 23 -52 34 -89 34c-34 0 -64 -11 -89 -33c-51 -44 -68 -96 -68 -131zM489 108c0 -22 -23 -49 -70 -80c-39 -26 -84 -39 -134 -39c-68 0 -125 24 -170 71c-45 48 -67 110 -67 187s24 143 71 200
s108 86 182 86c57 0 105 -18 143 -55c37 -37 56 -79 56 -126c0 -52 -20 -72 -77 -72h-283c-7 0 -11 -3 -11 -10c0 -62 13 -112 39 -149c35 -51 80 -77 135 -77c33 0 64 8 92 25c24 15 46 38 58 50c18 18 36 6 36 -11zM326 640c-7 -5 -18 -8 -34 -8c-33 0 -41 8 -41 41
c0 16 3 27 8 34c5 5 16 7 33 7s29 -2 34 -7s7 -17 7 -34s-2 -28 -7 -33z" />
    <glyph glyph-name="Eogonek" unicode="&#x118;" horiz-adv-x="621" 
d="M572 -137c7 0 10 -3 10 -10c0 -4 -2 -8 -7 -13c-23 -22 -52 -33 -86 -33c-59 0 -100 34 -100 86c0 30 16 64 48 103c-35 3 -70 4 -106 4h-248c-19 0 -28 5 -28 16c0 5 6 11 17 18c12 7 22 16 29 26c9 15 13 49 13 101v411c0 38 -1 63 -4 74s-10 20 -23 27
c-11 7 -27 10 -27 24c0 11 8 17 24 17h257c38 0 74 1 109 4s54 4 57 4c23 0 34 -9 35 -27c1 -11 2 -48 2 -63c1 -31 2 -52 2 -63c0 -20 -7 -30 -20 -30c-12 0 -21 8 -27 23l-9 23l-10 25c-4 9 -18 27 -34 38c-23 17 -80 25 -169 25h-67c-13 0 -19 -6 -19 -18v-238
c0 -15 5 -20 21 -20c36 0 70 1 103 3c67 3 103 5 108 5c24 0 36 -5 36 -15c0 -8 -4 -14 -4 -18c-5 -24 -13 -27 -40 -27c-11 0 -29 1 -54 2c-24 2 -43 3 -56 3c-51 1 -85 2 -102 2c-8 0 -12 -4 -12 -13v-213c0 -43 5 -67 14 -74c11 -8 39 -12 84 -12c27 0 53 1 77 4
c41 5 70 15 88 30c19 15 41 43 66 85c10 17 20 26 31 26c15 0 23 -8 23 -23c0 -7 -3 -20 -8 -40c-5 -19 -12 -58 -17 -75c-6 -27 -21 -59 -53 -55c-4 0 -16 1 -21 1c-9 -25 -14 -48 -14 -69c0 -44 31 -70 72 -70c17 0 35 9 39 9z" />
    <glyph glyph-name="eogonek" unicode="&#x119;" horiz-adv-x="543" 
d="M523 -127c6 0 9 -3 9 -9c0 -5 -4 -11 -13 -20c-25 -25 -54 -37 -89 -37c-53 0 -94 33 -94 88c0 37 15 75 45 113c-31 -13 -63 -20 -97 -20c-69 0 -125 24 -170 72c-44 49 -66 111 -66 188s24 143 71 200s108 85 182 85c57 0 105 -18 142 -55c38 -36 57 -78 57 -126
c0 -49 -20 -72 -76 -72h-284c-7 0 -10 -3 -10 -10v-10c0 -58 15 -109 45 -152c31 -43 74 -64 129 -64c51 0 95 21 115 42s40 42 49 42c14 0 21 -7 21 -20c0 -12 -9 -27 -26 -44c-40 -42 -60 -85 -60 -129c0 -49 28 -75 71 -75c21 0 45 13 49 13zM135 329c0 -6 2 -9 7 -9h183
c64 0 90 16 90 64c0 27 -11 52 -34 75c-22 23 -51 34 -87 34c-56 0 -103 -31 -126 -70s-33 -74 -33 -94z" />
    <glyph glyph-name="Ecaron" unicode="&#x11a;" horiz-adv-x="621" 
d="M551 185c15 0 23 -8 23 -23c0 -7 -3 -20 -8 -40c-5 -19 -12 -58 -17 -75c-6 -27 -21 -59 -53 -55c-4 0 -23 1 -58 4s-70 4 -107 4h-248c-19 0 -28 5 -28 16c0 5 6 11 17 18c12 7 22 16 29 26c9 15 13 49 13 101v411c0 38 -1 63 -4 74s-10 20 -23 27c-11 7 -27 10 -27 24
c0 11 8 17 24 17h257c38 0 74 1 109 4s54 4 57 4c23 0 34 -9 35 -27c1 -11 2 -48 2 -63c1 -31 2 -52 2 -63c0 -20 -7 -30 -20 -30c-12 0 -21 8 -27 23l-9 23l-10 25c-4 9 -18 27 -34 38c-23 17 -80 25 -169 25h-67c-13 0 -19 -6 -19 -18v-238c0 -15 5 -20 21 -20
c36 0 70 1 103 3c67 3 103 5 108 5c24 0 36 -5 36 -15c0 -8 -4 -14 -4 -18c-5 -24 -13 -27 -40 -27c-11 0 -29 1 -54 2c-24 2 -43 3 -56 3c-51 1 -85 2 -102 2c-8 0 -12 -4 -12 -13v-213c0 -43 5 -67 14 -74c11 -8 39 -12 84 -12c27 0 53 1 77 4c41 5 70 15 88 30
c19 15 41 43 66 85c10 17 20 26 31 26zM400 913h36c3 0 5 -1 5 -3c0 -1 -1 -3 -3 -6l-89 -110c-4 -5 -9 -7 -16 -7h-49c-7 0 -13 2 -17 7l-89 110c-2 2 -3 4 -3 5c0 3 2 4 5 4h38c4 0 8 -2 13 -7l74 -78c3 -3 5 -3 9 1l73 78c4 4 8 6 13 6z" />
    <glyph glyph-name="ecaron" unicode="&#x11b;" horiz-adv-x="542" 
d="M136 329c0 -6 3 -9 9 -9h179c65 0 92 15 92 64c0 27 -11 52 -34 75c-22 23 -52 34 -89 34c-34 0 -64 -11 -89 -33c-51 -44 -68 -96 -68 -131zM489 108c0 -22 -23 -49 -70 -80c-39 -26 -84 -39 -134 -39c-68 0 -125 24 -170 71c-45 48 -67 110 -67 187s24 143 71 200
s108 86 182 86c57 0 105 -18 143 -55c37 -37 56 -79 56 -126c0 -52 -20 -72 -77 -72h-283c-7 0 -11 -3 -11 -10c0 -62 13 -112 39 -149c35 -51 80 -77 135 -77c33 0 64 8 92 25c24 15 46 38 58 50c18 18 36 6 36 -11zM386 726h36c3 0 5 -1 5 -3c0 -1 -1 -3 -3 -6l-89 -110
c-4 -5 -9 -7 -16 -7h-49c-7 0 -13 2 -17 7l-89 110c-2 2 -3 4 -3 5c0 3 2 4 5 4h38c4 0 8 -2 13 -7l74 -78c3 -3 5 -3 9 1l73 78c4 4 8 6 13 6z" />
    <glyph glyph-name="Gcircumflex" unicode="&#x11c;" horiz-adv-x="730" 
d="M500 336h155c16 0 24 -5 24 -16c4 -11 -19 -17 -30 -25c-10 -7 -17 -17 -20 -31c-3 -13 -5 -40 -5 -79v-108c0 -15 -5 -27 -15 -36c-15 -11 -40 -23 -77 -35c-37 -11 -77 -17 -121 -17c-107 0 -195 35 -262 106s-101 157 -101 260c0 106 34 194 103 264
c69 71 155 106 260 107c65 0 120 -11 164 -32c37 -19 48 -44 48 -111c0 -37 -7 -46 -22 -46c-7 0 -12 2 -16 7c-8 9 -21 41 -33 60c-35 54 -86 81 -153 81c-79 0 -143 -30 -193 -89c-49 -59 -74 -132 -74 -221c0 -97 28 -178 83 -245s125 -100 210 -100c41 0 76 7 104 20
c13 5 19 16 19 31v104c0 43 -2 71 -6 83c-4 13 -15 22 -32 28c-15 8 -34 8 -34 24c0 11 8 16 24 16zM294 787h-36c-3 0 -5 1 -5 3c0 1 1 3 3 6l89 110c4 5 9 7 16 7h49c7 0 13 -2 17 -7l89 -110c2 -2 3 -4 3 -5c0 -3 -2 -4 -5 -4h-38c-4 0 -8 2 -13 7l-74 78
c-3 3 -5 3 -9 -1l-73 -78c-4 -4 -8 -6 -13 -6z" />
    <glyph glyph-name="gcircumflex" unicode="&#x11d;" horiz-adv-x="539" 
d="M248 493c-63 0 -103 -55 -103 -127c0 -46 11 -85 33 -118c23 -32 52 -48 87 -48c63 0 103 54 103 129c0 96 -51 164 -120 164zM390 76c67 -12 109 -49 109 -105c0 -93 -90 -164 -247 -164c-87 0 -149 16 -188 49c-25 21 -37 46 -37 76c0 24 9 45 26 62c15 15 31 22 48 22
c13 0 20 -5 20 -15c0 -3 -3 -10 -9 -21c-8 -13 -12 -27 -12 -43c0 -21 10 -40 31 -56c29 -22 74 -33 133 -33c97 0 170 42 170 99c0 35 -32 56 -96 62c-9 1 -24 3 -46 4c-43 4 -79 7 -106 14c-51 12 -76 36 -76 73c0 35 21 61 62 78c-67 31 -108 91 -108 166
c0 53 18 97 55 134s83 55 140 55c45 0 88 -14 127 -43c6 -4 11 -6 16 -6c25 0 25 51 64 51c21 0 36 -15 36 -40c0 -32 -22 -48 -66 -48c-6 0 -11 0 -15 1c17 -27 26 -58 26 -93c0 -109 -69 -187 -181 -194c-19 -1 -32 -2 -37 -3c-33 -3 -49 -14 -49 -32c0 -21 19 -29 74 -36
c1 0 19 -2 54 -5c36 -3 63 -6 82 -9zM170 600h-36c-3 0 -5 1 -5 3c0 1 1 3 3 6l89 110c4 5 9 7 16 7h49c7 0 13 -2 17 -7l89 -110c2 -2 3 -4 3 -5c0 -3 -2 -4 -5 -4h-38c-4 0 -8 2 -13 7l-74 78c-3 3 -5 3 -9 -1l-73 -78c-4 -4 -8 -6 -13 -6z" />
    <glyph glyph-name="Gbreve" unicode="&#x11e;" horiz-adv-x="730" 
d="M500 336h155c16 0 24 -5 24 -16c4 -11 -19 -17 -30 -25c-10 -7 -17 -17 -20 -31c-3 -13 -5 -40 -5 -79v-108c0 -15 -5 -27 -15 -36c-15 -11 -40 -23 -77 -35c-37 -11 -77 -17 -121 -17c-107 0 -195 35 -262 106s-101 157 -101 260c0 106 34 194 103 264
c69 71 155 106 260 107c65 0 120 -11 164 -32c37 -19 48 -44 48 -111c0 -37 -7 -46 -22 -46c-7 0 -12 2 -16 7c-8 9 -21 41 -33 60c-35 54 -86 81 -153 81c-79 0 -143 -30 -193 -89c-49 -59 -74 -132 -74 -221c0 -97 28 -178 83 -245s125 -100 210 -100c41 0 76 7 104 20
c13 5 19 16 19 31v104c0 43 -2 71 -6 83c-4 13 -15 22 -32 28c-15 8 -34 8 -34 24c0 11 8 16 24 16zM272 893c0 13 5 20 16 20c8 0 13 -5 16 -15c13 -44 41 -66 85 -66c45 0 73 22 86 66c3 10 9 15 16 15c11 0 16 -7 16 -20c0 -61 -51 -106 -118 -106s-117 45 -117 106z" />
    <glyph glyph-name="gbreve" unicode="&#x11f;" horiz-adv-x="539" 
d="M248 493c-63 0 -103 -55 -103 -127c0 -46 11 -85 33 -118c23 -32 52 -48 87 -48c63 0 103 54 103 129c0 96 -51 164 -120 164zM390 76c67 -12 109 -49 109 -105c0 -93 -90 -164 -247 -164c-87 0 -149 16 -188 49c-25 21 -37 46 -37 76c0 24 9 45 26 62c15 15 31 22 48 22
c13 0 20 -5 20 -15c0 -3 -3 -10 -9 -21c-8 -13 -12 -27 -12 -43c0 -21 10 -40 31 -56c29 -22 74 -33 133 -33c97 0 170 42 170 99c0 35 -32 56 -96 62c-9 1 -24 3 -46 4c-43 4 -79 7 -106 14c-51 12 -76 36 -76 73c0 35 21 61 62 78c-67 31 -108 91 -108 166
c0 53 18 97 55 134s83 55 140 55c45 0 88 -14 127 -43c6 -4 11 -6 16 -6c25 0 25 51 64 51c21 0 36 -15 36 -40c0 -32 -22 -48 -66 -48c-6 0 -11 0 -15 1c17 -27 26 -58 26 -93c0 -109 -69 -187 -181 -194c-19 -1 -32 -2 -37 -3c-33 -3 -49 -14 -49 -32c0 -21 19 -29 74 -36
c1 0 19 -2 54 -5c36 -3 63 -6 82 -9zM150 707c0 13 5 20 16 20c8 0 13 -5 16 -15c13 -44 41 -66 85 -66c45 0 73 22 86 66c3 10 9 15 16 15c11 0 16 -7 16 -20c0 -61 -51 -106 -118 -106s-117 45 -117 106z" />
    <glyph glyph-name="Gdotaccent" unicode="&#x120;" horiz-adv-x="730" 
d="M500 336h155c16 0 24 -5 24 -16c4 -11 -19 -17 -30 -25c-10 -7 -17 -17 -20 -31c-3 -13 -5 -40 -5 -79v-108c0 -15 -5 -27 -15 -36c-15 -11 -40 -23 -77 -35c-37 -11 -77 -17 -121 -17c-107 0 -195 35 -262 106s-101 157 -101 260c0 106 34 194 103 264
c69 71 155 106 260 107c65 0 120 -11 164 -32c37 -19 48 -44 48 -111c0 -37 -7 -46 -22 -46c-7 0 -12 2 -16 7c-8 9 -21 41 -33 60c-35 54 -86 81 -153 81c-79 0 -143 -30 -193 -89c-49 -59 -74 -132 -74 -221c0 -97 28 -178 83 -245s125 -100 210 -100c41 0 76 7 104 20
c13 5 19 16 19 31v104c0 43 -2 71 -6 83c-4 13 -15 22 -32 28c-15 8 -34 8 -34 24c0 11 8 16 24 16zM351 797c-5 5 -8 16 -8 34c0 35 7 42 42 42c16 0 27 -3 34 -8c5 -7 8 -18 8 -35s-3 -28 -8 -33c-7 -5 -18 -8 -35 -8s-28 3 -33 8z" />
    <glyph glyph-name="gdotaccent" unicode="&#x121;" horiz-adv-x="539" 
d="M248 493c-63 0 -103 -55 -103 -127c0 -46 11 -85 33 -118c23 -32 52 -48 87 -48c63 0 103 54 103 129c0 96 -51 164 -120 164zM390 76c67 -12 109 -49 109 -105c0 -93 -90 -164 -247 -164c-87 0 -149 16 -188 49c-25 21 -37 46 -37 76c0 24 9 45 26 62c15 15 31 22 48 22
c13 0 20 -5 20 -15c0 -3 -3 -10 -9 -21c-8 -13 -12 -27 -12 -43c0 -21 10 -40 31 -56c29 -22 74 -33 133 -33c97 0 170 42 170 99c0 35 -32 56 -96 62c-9 1 -24 3 -46 4c-43 4 -79 7 -106 14c-51 12 -76 36 -76 73c0 35 21 61 62 78c-67 31 -108 91 -108 166
c0 53 18 97 55 134s83 55 140 55c45 0 88 -14 127 -43c6 -4 11 -6 16 -6c25 0 25 51 64 51c21 0 36 -15 36 -40c0 -32 -22 -48 -66 -48c-6 0 -11 0 -15 1c17 -27 26 -58 26 -93c0 -109 -69 -187 -181 -194c-19 -1 -32 -2 -37 -3c-33 -3 -49 -14 -49 -32c0 -21 19 -29 74 -36
c1 0 19 -2 54 -5c36 -3 63 -6 82 -9zM300 640c-7 -5 -18 -8 -34 -8c-33 0 -41 8 -41 41c0 16 3 27 8 34c5 5 16 7 33 7s29 -2 34 -7s7 -17 7 -34s-2 -28 -7 -33z" />
    <glyph glyph-name="Gcommaaccent" unicode="&#x122;" horiz-adv-x="730" 
d="M500 336h155c16 0 24 -5 24 -16c4 -11 -19 -17 -30 -25c-10 -7 -17 -17 -20 -31c-3 -13 -5 -40 -5 -79v-108c0 -15 -5 -27 -15 -36c-15 -11 -40 -23 -77 -35c-37 -11 -77 -17 -121 -17c-107 0 -195 35 -262 106s-101 157 -101 260c0 106 34 194 103 264
c69 71 155 106 260 107c65 0 120 -11 164 -32c37 -19 48 -44 48 -111c0 -37 -7 -46 -22 -46c-7 0 -12 2 -16 7c-8 9 -21 41 -33 60c-35 54 -86 81 -153 81c-79 0 -143 -30 -193 -89c-49 -59 -74 -132 -74 -221c0 -97 28 -178 83 -245s125 -100 210 -100c41 0 76 7 104 20
c13 5 19 16 19 31v104c0 43 -2 71 -6 83c-4 13 -15 22 -32 28c-15 8 -34 8 -34 24c0 11 8 16 24 16zM405 -32c17 -18 26 -41 26 -68c0 -31 -10 -61 -31 -91c-23 -33 -43 -49 -61 -49c-4 0 -8 2 -11 5c-5 5 -8 9 7 21c12 9 22 21 31 34c7 13 11 24 11 35c0 16 -7 24 -31 47
c-16 13 -24 26 -24 37c0 8 6 18 19 31c13 12 23 18 30 18c11 0 22 -7 34 -20z" />
    <glyph glyph-name="gcommaaccent" unicode="&#x123;" horiz-adv-x="539" 
d="M241 577c-17 18 -26 41 -26 68c0 31 10 61 31 91c23 33 43 49 61 49c4 0 8 -2 11 -5c5 -5 8 -9 -7 -21c-12 -9 -22 -21 -31 -34c-7 -13 -11 -24 -11 -35c0 -16 7 -24 31 -47c16 -13 24 -26 24 -37c0 -8 -6 -18 -19 -31c-13 -12 -23 -18 -30 -18c-11 0 -22 7 -34 20z
M248 493c-63 0 -103 -55 -103 -127c0 -46 11 -85 33 -118c23 -32 52 -48 87 -48c63 0 103 54 103 129c0 96 -51 164 -120 164zM390 76c67 -12 109 -49 109 -105c0 -93 -90 -164 -247 -164c-87 0 -149 16 -188 49c-25 21 -37 46 -37 76c0 24 9 45 26 62c15 15 31 22 48 22
c13 0 20 -5 20 -15c0 -3 -3 -10 -9 -21c-8 -13 -12 -27 -12 -43c0 -21 10 -40 31 -56c29 -22 74 -33 133 -33c97 0 170 42 170 99c0 35 -32 56 -96 62c-9 1 -24 3 -46 4c-43 4 -79 7 -106 14c-51 12 -76 36 -76 73c0 35 21 61 62 78c-67 31 -108 91 -108 166
c0 53 18 97 55 134s83 55 140 55c45 0 88 -14 127 -43c6 -4 11 -6 16 -6c25 0 25 51 64 51c21 0 36 -15 36 -40c0 -32 -22 -48 -66 -48c-6 0 -11 0 -15 1c17 -27 26 -58 26 -93c0 -109 -69 -187 -181 -194c-19 -1 -32 -2 -37 -3c-33 -3 -49 -14 -49 -32c0 -21 19 -29 74 -36
c1 0 19 -2 54 -5c36 -3 63 -6 82 -9z" />
    <glyph glyph-name="Hcircumflex" unicode="&#x124;" horiz-adv-x="764" 
d="M693 34c11 -7 17 -13 17 -18c0 -11 -9 -16 -28 -16h-139c-19 0 -28 5 -28 15c0 7 5 13 16 19c15 9 25 17 30 26c9 15 13 49 13 101v186c0 7 -4 10 -11 10h-363c-7 0 -10 -3 -10 -9v-187c0 -52 4 -86 13 -101c6 -10 16 -19 30 -26c11 -6 16 -12 16 -19
c0 -10 -9 -15 -28 -15h-139c-19 0 -28 5 -28 16c0 5 6 11 17 18c11 6 21 15 29 26c9 13 13 47 13 101v403c0 39 -2 66 -5 79s-9 23 -19 30c-11 8 -34 14 -30 25c1 11 9 16 25 16h135c17 0 26 -5 26 -16c4 -11 -19 -17 -30 -25c-11 -7 -18 -17 -21 -30s-4 -40 -4 -79v-156
c0 -7 4 -10 12 -10h363c6 0 9 3 9 9v157c0 39 -2 66 -5 79s-9 23 -20 30c-11 8 -34 14 -30 25c1 11 9 16 26 16h135c16 0 24 -5 25 -16c4 -11 -19 -17 -30 -25c-10 -7 -17 -17 -20 -30s-4 -40 -4 -79v-403c0 -54 4 -88 13 -101c8 -11 18 -20 29 -26zM290 787h-36
c-3 0 -5 1 -5 3c0 1 1 3 3 6l89 110c4 5 9 7 16 7h49c7 0 13 -2 17 -7l89 -110c2 -2 3 -4 3 -5c0 -3 -2 -4 -5 -4h-38c-4 0 -8 2 -13 7l-74 78c-3 3 -5 3 -9 -1l-73 -78c-4 -4 -8 -6 -13 -6z" />
    <glyph glyph-name="hcircumflex" unicode="&#x125;" horiz-adv-x="612" 
d="M559 35c11 -5 16 -11 16 -18c0 -11 -8 -17 -25 -17h-148c-16 0 -24 6 -24 17c0 7 5 13 15 18c14 6 24 14 29 23c11 18 16 54 16 107v170c0 87 -40 134 -116 134c-37 0 -67 -12 -91 -36c-20 -20 -33 -48 -39 -83s-9 -97 -9 -185c0 -53 5 -89 16 -107c5 -8 14 -16 29 -23
c10 -5 15 -11 15 -18c0 -11 -8 -17 -24 -17h-147c-16 0 -24 6 -24 17c0 7 5 13 15 18c15 7 25 14 30 23c11 18 16 54 16 107v410c0 49 -4 78 -12 88c-5 6 -15 11 -32 16c-14 4 -21 10 -21 18c0 10 8 17 25 21c27 6 53 14 77 25c6 3 12 4 17 4c13 0 20 -8 20 -23v-279
c0 -7 3 -7 7 0c39 59 93 88 162 88c51 0 91 -17 121 -50c28 -31 42 -79 42 -146v-172c0 -55 5 -90 15 -107c5 -9 15 -17 29 -23zM52 787h-36c-3 0 -5 1 -5 3c0 1 1 3 3 6l89 110c4 5 9 7 16 7h49c7 0 13 -2 17 -7l89 -110c2 -2 3 -4 3 -5c0 -3 -2 -4 -5 -4h-38
c-4 0 -8 2 -13 7l-74 78c-3 3 -5 3 -9 -1l-73 -78c-4 -4 -8 -6 -13 -6z" />
    <glyph glyph-name="Hbar" unicode="&#x126;" horiz-adv-x="822" 
d="M687 553h87c6 0 9 -3 9 -10v-21c0 -7 -3 -10 -9 -10h-87c-5 0 -8 -2 -8 -7v-344c0 -53 5 -86 14 -101c6 -11 15 -19 28 -25c11 -6 17 -12 17 -19c0 -11 -9 -16 -28 -16h-138c-19 0 -29 5 -29 16c0 7 6 13 18 19c13 6 22 14 28 25c9 15 14 48 14 101v166c0 6 -3 9 -10 9
h-365c-7 0 -10 -3 -10 -9v-166c0 -51 5 -84 15 -101c6 -11 15 -19 28 -25c12 -6 18 -12 18 -19c0 -11 -10 -16 -30 -16h-138c-19 0 -28 5 -28 16c0 7 6 13 17 19c13 7 22 15 28 25c9 15 14 49 14 101v343c0 5 -3 8 -9 8h-85c-6 0 -9 3 -9 10v21c0 7 3 10 9 10h86
c5 0 8 4 8 11c0 39 -2 66 -5 79c-3 14 -9 24 -19 31c-17 10 -30 10 -30 24c0 11 8 16 24 16h137c16 0 24 -5 24 -16c3 -11 -18 -17 -30 -24c-10 -7 -17 -17 -20 -31c-3 -13 -5 -40 -5 -79c0 -7 3 -11 9 -11h368c5 0 8 4 8 11c0 77 -5 97 -25 110c-12 7 -33 13 -30 24
c0 11 8 16 25 16h135c17 0 26 -5 26 -15c4 -11 -18 -17 -31 -25c-10 -7 -17 -17 -20 -31c-3 -13 -4 -40 -4 -79c0 -7 3 -11 8 -11zM603 385v121c0 4 -3 6 -9 6h-367c-6 0 -9 -2 -9 -7v-118c0 -7 4 -10 12 -10h363c7 0 10 3 10 8z" />
    <glyph glyph-name="hbar" unicode="&#x127;" horiz-adv-x="605" 
d="M552 35c11 -6 16 -12 16 -18c0 -11 -8 -17 -24 -17h-149c-15 0 -23 6 -23 17c0 7 5 13 15 18c15 9 25 16 29 23c10 17 15 52 15 107v170c0 85 -42 134 -115 134c-37 0 -68 -12 -92 -36c-20 -20 -33 -48 -39 -83s-9 -97 -9 -185c0 -53 5 -88 16 -107c4 -7 14 -14 29 -23
c10 -5 15 -11 15 -18c0 -11 -8 -17 -23 -17h-148c-15 0 -23 6 -23 17c0 7 5 13 15 18c15 8 24 16 29 23c11 16 16 52 16 107v435c0 2 -2 3 -5 3h-96c-6 0 -9 3 -9 10v21c0 7 3 10 9 10h96c3 0 5 1 5 4v79c0 5 2 7 7 8l57 11c3 1 5 1 6 1c3 0 4 -2 4 -5v-94c0 -3 2 -4 5 -4
h139c6 0 9 -3 9 -10v-21c0 -7 -3 -10 -9 -10h-140c-3 0 -4 -1 -4 -3v-156c0 -5 3 -6 7 1c32 49 89 88 162 88c55 0 98 -19 128 -58c23 -30 34 -76 34 -138v-172c0 -53 5 -89 16 -107c4 -7 14 -14 29 -23z" />
    <glyph glyph-name="Itilde" unicode="&#x128;" horiz-adv-x="303" 
d="M233 35c11 -5 16 -12 16 -19c0 -11 -9 -16 -28 -16h-139c-19 0 -28 5 -28 16c0 7 6 13 17 19c12 6 22 14 29 25c9 13 13 47 13 101v402c0 40 -2 67 -5 80s-9 23 -19 30c-11 8 -35 14 -30 25c0 11 8 16 25 16h135c17 0 26 -5 26 -16c4 -11 -19 -17 -30 -25
c-11 -7 -18 -17 -21 -30s-4 -40 -4 -80v-402c0 -52 4 -86 13 -101c7 -9 17 -18 30 -25zM-2 792l-11 4c-4 1 -6 3 -6 6c0 1 1 5 3 10c19 53 50 79 91 79c19 0 48 -7 86 -22s64 -22 79 -22c20 0 37 12 50 37c2 4 4 6 7 6c2 0 5 -1 8 -2l11 -4c3 -1 5 -3 5 -5c0 -1 -1 -4 -2 -7
c-21 -56 -47 -80 -91 -80c-21 0 -51 7 -89 22s-64 22 -77 22c-20 0 -37 -13 -50 -39c-3 -5 -5 -7 -7 -7c-1 0 -3 1 -7 2z" />
    <glyph glyph-name="itilde" unicode="&#x129;" horiz-adv-x="292" 
d="M234 34c10 -6 15 -12 15 -17c0 -11 -8 -17 -23 -17h-149c-15 0 -23 6 -23 17c0 6 5 12 15 17c15 8 24 16 29 24c10 15 15 50 15 107v228c0 29 -3 47 -10 55c-6 7 -16 13 -31 16c-15 4 -23 10 -23 18c0 11 4 16 27 21c29 7 55 15 79 25c8 3 14 5 17 5c12 0 18 -8 18 -24
v-344c0 -56 5 -92 15 -107c5 -9 15 -17 29 -24zM-3 627l-11 4c-4 1 -6 3 -6 6c0 2 1 5 3 10c19 53 50 79 91 79c19 0 47 -7 85 -22s65 -22 80 -22c20 0 37 12 50 37c2 4 4 6 7 6c2 0 5 -1 8 -2l11 -4c3 -1 5 -3 5 -5c0 -1 -1 -4 -2 -7c-21 -56 -47 -80 -91 -80
c-21 0 -51 7 -89 22s-64 22 -77 22c-21 0 -37 -13 -50 -39c-2 -5 -4 -7 -7 -7c-1 0 -3 1 -7 2z" />
    <glyph glyph-name="Imacron" unicode="&#x12a;" horiz-adv-x="303" 
d="M233 35c11 -5 16 -12 16 -19c0 -11 -9 -16 -28 -16h-139c-19 0 -28 5 -28 16c0 7 6 13 17 19c12 6 22 14 29 25c9 13 13 47 13 101v402c0 40 -2 67 -5 80s-9 23 -19 30c-11 8 -35 14 -30 25c0 11 8 16 25 16h135c17 0 26 -5 26 -16c4 -11 -19 -17 -30 -25
c-11 -7 -18 -17 -21 -30s-4 -40 -4 -80v-402c0 -52 4 -86 13 -101c7 -9 17 -18 30 -25zM292 870v-33c0 -5 -3 -8 -9 -8h-261c-5 0 -8 3 -8 8v33c0 5 3 8 8 8h261c6 0 9 -3 9 -8z" />
    <glyph glyph-name="imacron" unicode="&#x12b;" horiz-adv-x="292" 
d="M234 34c10 -6 15 -12 15 -17c0 -11 -8 -17 -23 -17h-149c-15 0 -23 6 -23 17c0 6 5 12 15 17c15 8 24 16 29 24c10 15 15 50 15 107v228c0 29 -3 47 -10 55c-6 7 -16 13 -31 16c-15 4 -23 10 -23 18c0 11 4 16 27 21c29 7 55 15 79 25c8 3 14 5 17 5c12 0 18 -8 18 -24
v-344c0 -56 5 -92 15 -107c5 -9 15 -17 29 -24zM281 706v-33c0 -5 -3 -8 -9 -8h-261c-5 0 -8 3 -8 8v33c0 5 3 8 8 8h261c6 0 9 -3 9 -8z" />
    <glyph glyph-name="Ibreve" unicode="&#x12c;" horiz-adv-x="303" 
d="M233 35c11 -5 16 -12 16 -19c0 -11 -9 -16 -28 -16h-139c-19 0 -28 5 -28 16c0 7 6 13 17 19c12 6 22 14 29 25c9 13 13 47 13 101v402c0 40 -2 67 -5 80s-9 23 -19 30c-11 8 -35 14 -30 25c0 11 8 16 25 16h135c17 0 26 -5 26 -16c4 -11 -19 -17 -30 -25
c-11 -7 -18 -17 -21 -30s-4 -40 -4 -80v-402c0 -52 4 -86 13 -101c7 -9 17 -18 30 -25zM35 893c0 13 5 20 16 20c8 0 13 -5 16 -15c13 -44 41 -66 85 -66c45 0 73 22 86 66c3 10 8 15 16 15c11 0 16 -7 16 -20c0 -61 -51 -106 -118 -106s-117 45 -117 106z" />
    <glyph glyph-name="ibreve" unicode="&#x12d;" horiz-adv-x="292" 
d="M234 34c10 -6 15 -12 15 -17c0 -11 -8 -17 -23 -17h-149c-15 0 -23 6 -23 17c0 6 5 12 15 17c15 8 24 16 29 24c10 15 15 50 15 107v228c0 29 -3 47 -10 55c-6 7 -16 13 -31 16c-15 4 -23 10 -23 18c0 11 4 16 27 21c29 7 55 15 79 25c8 3 14 5 17 5c12 0 18 -8 18 -24
v-344c0 -56 5 -92 15 -107c5 -9 15 -17 29 -24zM26 707c0 13 5 20 16 20c8 0 13 -5 16 -15c13 -44 41 -66 85 -66c45 0 73 22 86 66c3 10 9 15 16 15c11 0 16 -7 16 -20c0 -61 -51 -106 -118 -106s-117 45 -117 106z" />
    <glyph glyph-name="Iogonek" unicode="&#x12e;" horiz-adv-x="303" 
d="M264 -137c7 0 10 -3 10 -10c0 -4 -2 -8 -7 -13c-23 -22 -51 -33 -86 -33c-59 0 -100 34 -100 86c0 31 17 66 51 107h-50c-19 0 -28 5 -28 16c0 7 6 13 17 19c12 6 22 14 29 25c9 13 13 47 13 101v402c0 40 -2 67 -5 80s-9 23 -19 30c-11 8 -35 14 -30 25c0 11 8 16 25 16
h135c17 0 26 -5 26 -16c4 -11 -19 -17 -30 -25c-11 -7 -18 -17 -21 -30s-4 -40 -4 -80v-402c0 -52 4 -86 13 -101c7 -9 17 -18 30 -25c11 -5 16 -12 16 -19c0 -11 -9 -16 -28 -16h-51c-11 -25 -17 -51 -17 -76c0 -44 31 -70 72 -70c17 0 35 9 39 9z" />
    <glyph glyph-name="iogonek" unicode="&#x12f;" horiz-adv-x="292" 
d="M261 -137c7 0 10 -3 10 -10c0 -4 -2 -8 -7 -13c-23 -22 -52 -33 -86 -33c-59 0 -100 34 -100 86c0 31 17 66 51 107h-52c-15 0 -23 6 -23 17c0 6 5 12 15 17c15 8 24 16 29 24c10 15 15 50 15 107v228c0 29 -3 47 -10 55c-6 7 -16 13 -31 16c-15 4 -23 10 -23 18
c0 11 4 16 27 21c29 7 55 15 79 25c8 3 14 5 17 5c12 0 18 -8 18 -24v-344c0 -56 5 -92 15 -107c5 -9 15 -17 29 -24c10 -6 15 -12 15 -17c0 -11 -8 -17 -23 -17h-59c-11 -25 -17 -51 -17 -76c0 -44 31 -70 72 -70c17 0 35 9 39 9zM212 686c0 -11 -8 -24 -24 -40
c-15 -15 -28 -23 -39 -23c-10 0 -23 8 -39 24c-15 16 -23 29 -23 39c0 9 8 22 23 38c16 16 29 24 39 24c11 0 24 -8 39 -24c16 -15 24 -28 24 -38z" />
    <glyph glyph-name="Idot" unicode="&#x130;" horiz-adv-x="303" 
d="M233 35c11 -5 16 -12 16 -19c0 -11 -9 -16 -28 -16h-139c-19 0 -28 5 -28 16c0 7 6 13 17 19c12 6 22 14 29 25c9 13 13 47 13 101v402c0 40 -2 67 -5 80s-9 23 -19 30c-11 8 -35 14 -30 25c0 11 8 16 25 16h135c17 0 26 -5 26 -16c4 -11 -19 -17 -30 -25
c-11 -7 -18 -17 -21 -30s-4 -40 -4 -80v-402c0 -52 4 -86 13 -101c7 -9 17 -18 30 -25zM118 797c-5 5 -8 16 -8 34c0 35 7 42 42 42c16 0 27 -3 34 -8c5 -7 8 -18 8 -35s-3 -28 -8 -33c-7 -5 -18 -8 -35 -8s-28 3 -33 8z" />
    <glyph glyph-name="dotlessi" unicode="&#x131;" horiz-adv-x="292" 
d="M234 34c10 -6 15 -12 15 -17c0 -11 -8 -17 -23 -17h-149c-15 0 -23 6 -23 17c0 6 5 12 15 17c15 8 24 16 29 24c10 15 15 50 15 107v228c0 29 -3 47 -10 55c-6 7 -16 13 -31 16c-15 4 -23 10 -23 18c0 11 4 16 27 21c29 7 55 15 79 25c8 3 14 5 17 5c12 0 18 -8 18 -24
v-344c0 -56 5 -92 15 -107c5 -9 15 -17 29 -24z" />
    <glyph glyph-name="IJ" unicode="&#x132;" horiz-adv-x="579" 
d="M436 -21c-12 -27 -29 -51 -52 -73s-40 -33 -51 -33c-9 0 -18 14 -18 26c0 5 4 10 11 15c12 8 22 17 29 26c25 33 37 101 37 205v405c0 55 -5 91 -15 106c-5 8 -14 16 -29 24c-10 5 -15 11 -15 17c0 11 8 17 24 17h146c17 0 25 -6 25 -17c0 -6 -5 -12 -15 -17
c-15 -8 -25 -16 -30 -24c-10 -15 -15 -50 -15 -106v-175c1 -82 1 -135 1 -160c0 -109 -11 -187 -33 -236zM233 35c11 -5 16 -12 16 -19c0 -11 -9 -16 -28 -16h-139c-19 0 -28 5 -28 16c0 7 6 13 17 19c12 6 22 14 29 25c9 13 13 47 13 101v402c0 40 -2 67 -5 80
s-9 23 -19 30c-11 8 -35 14 -30 25c0 11 8 16 25 16h135c17 0 26 -5 26 -16c4 -11 -19 -17 -30 -25c-11 -7 -18 -17 -21 -30s-4 -40 -4 -80v-402c0 -52 4 -86 13 -101c7 -9 17 -18 30 -25z" />
    <glyph glyph-name="ij" unicode="&#x133;" horiz-adv-x="576" 
d="M212 686c0 -11 -8 -24 -24 -40c-15 -15 -28 -23 -39 -23c-10 0 -23 8 -39 24c-15 16 -23 29 -23 39c0 9 8 22 23 38c16 16 29 24 39 24c11 0 24 -8 39 -24c16 -15 24 -28 24 -38zM234 34c10 -6 15 -12 15 -17c0 -11 -8 -17 -23 -17h-149c-15 0 -23 6 -23 17
c0 6 5 12 15 17c15 8 24 16 29 24c10 15 15 50 15 107v228c0 29 -3 47 -10 55c-6 7 -16 13 -31 16c-15 4 -23 10 -23 18c0 11 4 16 27 21c29 7 55 15 79 25c8 3 14 5 17 5c12 0 18 -8 18 -24v-344c0 -56 5 -92 15 -107c5 -9 15 -17 29 -24zM475 509v-231
c1 -104 1 -171 1 -201c0 -81 -16 -145 -49 -190c-39 -52 -92 -78 -157 -78c-60 0 -84 25 -84 82c0 21 8 31 23 31c9 0 18 -5 27 -15c28 -31 54 -47 79 -47c29 0 50 15 65 45c13 26 20 79 20 159l-1 316c0 36 -4 59 -11 68c-5 7 -16 12 -31 16s-22 10 -22 18c0 11 3 16 26 21
c31 7 57 16 79 25c8 3 14 5 17 5c12 0 18 -8 18 -24zM497 686c0 -11 -8 -24 -24 -40c-15 -15 -28 -23 -38 -23c-11 0 -24 8 -40 24c-15 16 -23 29 -23 39c0 9 8 22 24 38s29 24 40 24c10 0 23 -8 38 -24c15 -15 23 -28 23 -38z" />
    <glyph glyph-name="Jcircumflex" unicode="&#x134;" horiz-adv-x="438" 
d="M263 246v304c0 53 -5 89 -15 106c-4 7 -14 15 -30 24c-10 5 -15 11 -15 18c0 11 8 16 24 16h146c15 0 23 -5 23 -16c0 -7 -5 -13 -15 -18c-13 -7 -22 -15 -27 -24c-10 -18 -15 -53 -15 -106v-102c1 -55 1 -96 1 -123c0 -112 -7 -171 -39 -227
c-40 -71 -115 -109 -198 -109c-30 0 -52 6 -67 18s-23 40 -23 85c0 25 7 38 22 38c8 0 17 -7 27 -21l8 -12c11 -13 12 -14 21 -26c16 -16 34 -28 62 -28c25 0 47 9 66 28c33 33 44 79 44 175zM206 787h-36c-3 0 -5 1 -5 3c0 1 1 3 3 6l89 110c4 5 9 7 16 7h49
c7 0 13 -2 17 -7l89 -110c2 -2 3 -4 3 -5c0 -3 -2 -4 -5 -4h-38c-4 0 -8 2 -13 7l-74 78c-3 3 -5 3 -9 -1l-73 -78c-4 -4 -8 -6 -13 -6z" />
    <glyph glyph-name="jcircumflex" unicode="&#x135;" horiz-adv-x="294" 
d="M206 509v-231c1 -104 1 -171 1 -201c0 -81 -16 -145 -49 -190c-39 -52 -92 -78 -157 -78c-60 0 -84 25 -84 82c0 21 8 31 23 31c9 0 18 -5 27 -15c28 -31 54 -47 79 -47c28 0 50 15 65 45c13 26 20 79 20 159l-1 316c0 36 -4 59 -11 68c-5 7 -16 12 -31 16s-22 10 -22 18
c0 11 3 16 26 21c31 7 57 16 79 25c8 3 14 5 17 5c12 0 18 -8 18 -24zM68 600h-36c-3 0 -5 1 -5 3c0 1 1 3 3 6l89 110c4 5 9 7 16 7h49c7 0 13 -2 17 -7l89 -110c2 -2 3 -4 3 -5c0 -3 -2 -4 -5 -4h-38c-4 0 -8 2 -13 7l-74 78c-3 3 -5 3 -9 -1l-73 -78c-4 -4 -8 -6 -13 -6z
" />
    <glyph glyph-name="Kcommaaccent" unicode="&#x136;" horiz-adv-x="714" 
d="M683 17c0 -11 -8 -17 -24 -17h-62c-18 0 -34 6 -48 18c-17 15 -64 76 -142 183c-114 152 -112 149 -127 151c-5 0 -14 -5 -27 -16l-51 -48c-8 -7 -12 -15 -12 -23v-104c0 -52 4 -86 13 -101c5 -8 15 -16 30 -25c11 -6 16 -12 16 -19c0 -11 -9 -16 -28 -16h-139
c-19 0 -28 5 -28 16c0 7 6 13 17 19c12 7 22 15 29 25c9 13 13 47 13 101v403c0 39 -2 66 -5 79s-9 23 -19 30c-11 8 -34 14 -30 25c1 11 9 16 25 16h135c17 0 25 -5 26 -16c4 -11 -19 -17 -30 -25c-11 -7 -18 -17 -21 -30s-4 -40 -4 -79v-225c0 -3 1 -4 3 -4c1 0 4 2 7 5
l237 226c44 42 66 71 66 86c0 11 -5 19 -16 26c-10 7 -15 14 -15 19c0 11 10 17 29 17h154c15 0 22 -5 22 -16c0 -4 -1 -7 -4 -10c-5 -5 -27 -14 -31 -15c-47 -23 -100 -64 -160 -122l-156 -147c-3 -3 -4 -5 -4 -7c0 -4 2 -6 6 -6c3 0 8 3 13 3c11 0 24 -9 38 -26
c8 -9 27 -33 39 -52l62 -84c54 -74 94 -124 119 -151c25 -26 46 -42 63 -47c14 -5 21 -10 21 -17zM401 -32c17 -18 26 -41 26 -68c0 -31 -10 -61 -31 -91c-23 -33 -43 -49 -61 -49c-4 0 -8 2 -11 5c-5 5 -8 9 7 21c12 9 22 21 31 34c7 13 11 24 11 35c0 16 -7 24 -31 47
c-16 13 -24 26 -24 37c0 8 6 18 19 31c13 12 23 18 30 18c11 0 22 -7 34 -20z" />
    <glyph glyph-name="kcommaaccent" unicode="&#x137;" horiz-adv-x="595" 
d="M550 35c14 -5 21 -11 21 -18c0 -11 -8 -17 -23 -17h-61c-20 0 -36 6 -49 18c-15 13 -47 54 -96 121c-33 46 -56 76 -69 90c-13 15 -23 22 -30 22c-5 0 -13 -5 -24 -14l-29 -25c-3 -3 -4 -7 -4 -13v-19c0 -64 5 -104 16 -121c5 -9 15 -17 29 -24c11 -6 16 -12 16 -19
c0 -11 -8 -16 -25 -16h-150c-17 0 -25 5 -25 16c0 7 5 14 15 19c17 10 27 18 31 24c10 15 15 52 15 109v440c0 27 -4 45 -12 53c-5 5 -15 11 -32 17c-14 5 -21 11 -21 18c0 11 9 18 27 22c31 7 58 15 80 24c6 3 12 4 17 4c13 0 19 -7 19 -22v-454c0 -3 1 -4 3 -4
c1 0 3 1 6 4l119 105c27 25 32 30 47 47c16 17 20 27 20 36c0 10 -6 19 -17 26s-17 14 -17 21c0 11 10 17 29 17h157c17 0 25 -6 25 -17c0 -16 -22 -19 -39 -26c-16 -7 -33 -18 -48 -27c-15 -8 -39 -28 -52 -39c-7 -5 -17 -13 -30 -25l-30 -26c-6 -6 -17 -17 -34 -32
s-29 -25 -36 -32c-3 -3 -4 -5 -4 -7c0 -3 2 -5 5 -5s10 5 15 5c23 0 47 -30 103 -110c37 -53 66 -90 85 -109c20 -19 39 -32 57 -37zM351 -32c17 -18 26 -41 26 -68c0 -31 -10 -61 -31 -91c-23 -33 -43 -49 -61 -49c-4 0 -8 2 -11 5c-5 5 -8 9 7 21c12 9 22 21 31 34
c7 13 11 24 11 35c0 16 -7 24 -31 47c-16 13 -24 26 -24 37c0 8 6 18 19 31c13 12 23 18 30 18c11 0 22 -7 34 -20z" />
    <glyph glyph-name="kra" unicode="&#x138;" horiz-adv-x="602" 
d="M557 35c14 -5 21 -11 21 -18c0 -11 -8 -17 -23 -17h-61c-20 0 -36 6 -49 18c-15 13 -47 54 -96 121c-33 46 -56 76 -69 90c-13 15 -23 22 -30 22c-4 0 -12 -5 -24 -14l-29 -25c-3 -3 -4 -7 -4 -13v-19c0 -64 5 -104 16 -121c5 -9 15 -17 29 -24c11 -6 16 -12 16 -19
c0 -11 -8 -16 -25 -16h-150c-17 0 -25 5 -25 16c0 7 5 14 15 19c17 10 27 18 31 24c10 15 15 52 15 109v227c0 27 -4 45 -12 53c-5 5 -15 11 -32 17c-14 5 -21 11 -21 19c0 10 9 17 27 21c31 7 58 15 80 24c7 3 13 4 17 4c13 0 19 -7 19 -22v-241c0 -3 1 -4 3 -4
c1 0 2 1 3 2l122 107c27 25 32 30 47 47c16 17 20 27 20 36c0 10 -6 18 -17 25s-17 15 -17 22c0 11 10 17 29 17h157c17 0 25 -6 25 -17c0 -16 -22 -19 -39 -26c-16 -7 -33 -18 -48 -27c-15 -8 -39 -28 -52 -39c-7 -5 -17 -13 -30 -25l-30 -26c-6 -6 -17 -17 -34 -32
s-29 -25 -36 -32c-3 -3 -4 -5 -4 -7c0 -3 2 -5 5 -5s10 5 15 5c12 0 25 -7 46 -34c11 -13 20 -25 27 -35l36 -49c37 -51 65 -86 83 -104c18 -17 36 -29 53 -34z" />
    <glyph glyph-name="Lacute" unicode="&#x139;" horiz-adv-x="550" 
d="M515 186c15 0 22 -8 22 -23c0 -9 -3 -24 -9 -44c-3 -10 -7 -25 -11 -44s-8 -34 -11 -44c-5 -19 -21 -39 -48 -39c-9 0 -29 1 -62 4s-67 4 -103 4h-218c-19 0 -28 5 -28 16c0 5 6 11 17 18c13 8 22 17 29 26c9 13 13 47 13 101v403c0 40 -2 67 -5 80s-9 23 -19 30
c-11 8 -34 14 -30 25c1 10 9 15 25 15h135c17 0 26 -5 26 -15c4 -11 -19 -17 -30 -25c-11 -7 -18 -17 -21 -30s-4 -40 -4 -80v-438c0 -43 5 -67 14 -74c11 -8 34 -12 67 -12c19 0 40 1 64 4c41 5 70 15 88 30s40 43 66 85c12 18 23 27 33 27zM275 900l-157 -99
c-8 -6 -18 -9 -31 -9h-45c-4 0 -6 2 -6 5c0 2 2 4 6 7l118 96c10 9 22 13 37 13h72c7 0 10 -2 10 -6c0 -3 -1 -5 -4 -7z" />
    <glyph glyph-name="lacute" unicode="&#x13a;" horiz-adv-x="286" 
d="M238 34c10 -6 15 -12 15 -17c0 -11 -8 -17 -23 -17h-149c-15 0 -23 6 -23 17c0 6 5 12 15 17c15 8 24 16 29 24c10 15 15 50 15 107v442c0 29 -3 47 -10 55c-6 7 -16 13 -31 16c-15 4 -23 10 -23 18c0 11 4 16 27 21c29 7 55 15 79 25c8 3 14 5 17 5c12 0 18 -8 18 -24
v-558c0 -56 5 -92 15 -107c5 -9 15 -17 29 -24zM252 900l-157 -99c-8 -6 -18 -9 -31 -9h-45c-4 0 -6 2 -6 5c0 2 2 4 6 7l118 96c10 9 22 13 37 13h72c7 0 10 -2 10 -6c0 -3 -1 -5 -4 -7z" />
    <glyph glyph-name="Lcommaaccent" unicode="&#x13b;" horiz-adv-x="557" 
d="M522 186c15 0 22 -8 22 -23c0 -9 -3 -24 -9 -44c-3 -10 -7 -25 -11 -44s-8 -34 -11 -44c-5 -19 -21 -39 -48 -39c-9 0 -29 1 -62 4s-67 4 -103 4h-218c-19 0 -28 5 -28 16c0 5 6 11 17 18c13 8 22 17 29 26c9 13 13 47 13 101v403c0 40 -2 67 -5 80s-9 23 -19 30
c-11 8 -34 14 -30 25c1 10 9 15 25 15h135c17 0 26 -5 26 -15c4 -11 -19 -17 -30 -25c-11 -7 -18 -17 -21 -30s-4 -40 -4 -80v-438c0 -43 5 -67 14 -74c11 -8 34 -12 67 -12c19 0 40 1 64 4c41 5 70 15 88 30s40 43 66 85c12 18 23 27 33 27zM325 -32c17 -18 26 -41 26 -68
c0 -31 -10 -61 -31 -91c-23 -33 -43 -49 -61 -49c-4 0 -8 2 -11 5c-5 5 -8 9 7 21c12 9 22 21 31 34c7 13 11 24 11 35c0 16 -7 24 -31 47c-16 13 -24 26 -24 37c0 8 6 18 19 31c13 12 23 18 30 18c11 0 22 -7 34 -20z" />
    <glyph glyph-name="lcommaaccent" unicode="&#x13c;" horiz-adv-x="287" 
d="M238 34c10 -6 15 -12 15 -17c0 -11 -8 -17 -23 -17h-149c-15 0 -23 6 -23 17c0 6 5 12 15 17c15 8 24 16 29 24c10 15 15 50 15 107v442c0 29 -3 47 -10 55c-6 7 -16 13 -31 16c-15 4 -23 10 -23 18c0 11 4 16 27 21c29 7 55 15 79 25c8 3 14 5 17 5c12 0 18 -8 18 -24
v-558c0 -56 5 -92 15 -107c5 -9 15 -17 29 -24zM185 -32c17 -18 26 -41 26 -68c0 -31 -10 -61 -31 -91c-23 -33 -43 -49 -61 -49c-4 0 -8 2 -11 5c-5 5 -8 9 7 21c12 9 22 21 31 34c7 13 11 24 11 35c0 16 -7 24 -31 47c-16 13 -24 26 -24 37c0 8 6 18 19 31
c13 12 23 18 30 18c11 0 22 -7 34 -20z" />
    <glyph glyph-name="Lcaron" unicode="&#x13d;" horiz-adv-x="557" 
d="M522 186c15 0 22 -8 22 -23c0 -9 -3 -24 -9 -44c-3 -10 -7 -25 -11 -44s-8 -34 -11 -44c-5 -19 -21 -39 -48 -39c-9 0 -29 1 -62 4s-67 4 -103 4h-218c-19 0 -28 5 -28 16c0 5 6 11 17 18c13 8 22 17 29 26c9 13 13 47 13 101v403c0 40 -2 67 -5 80s-9 23 -19 30
c-11 8 -34 14 -30 25c1 10 9 15 25 15h135c17 0 26 -5 26 -15c4 -11 -19 -17 -30 -25c-11 -7 -18 -17 -21 -30s-4 -40 -4 -80v-438c0 -43 5 -67 14 -74c11 -8 34 -12 67 -12c19 0 40 1 64 4c41 5 70 15 88 30s40 43 66 85c12 18 23 27 33 27zM413 706c17 -18 26 -41 26 -68
c0 -31 -10 -61 -31 -91c-23 -33 -43 -49 -61 -49c-4 0 -8 2 -11 5c-5 5 -8 9 7 21c12 9 22 21 31 34c7 13 11 24 11 35c0 16 -7 24 -31 47c-16 13 -24 26 -24 37c0 8 6 18 19 30c13 13 23 19 30 19c11 0 22 -7 34 -20z" />
    <glyph glyph-name="lcaron" unicode="&#x13e;" horiz-adv-x="372" 
d="M238 34c10 -6 15 -12 15 -17c0 -11 -8 -17 -23 -17h-149c-15 0 -23 6 -23 17c0 6 5 12 15 17c15 8 24 16 29 24c10 15 15 50 15 107v442c0 29 -3 47 -10 55c-6 7 -16 13 -31 16c-15 4 -23 10 -23 18c0 11 4 16 27 21c29 7 55 15 79 25c8 3 14 5 17 5c12 0 18 -8 18 -24
v-558c0 -56 5 -92 15 -107c5 -9 15 -17 29 -24zM375 706c17 -18 26 -41 26 -68c0 -31 -10 -61 -31 -91c-23 -33 -43 -49 -61 -49c-4 0 -8 2 -11 5c-5 5 -8 9 7 21c12 9 22 21 31 34c7 13 11 24 11 35c0 16 -7 24 -31 47c-16 13 -24 26 -24 37c0 8 6 18 19 30
c13 13 23 19 30 19c11 0 22 -7 34 -20z" />
    <glyph glyph-name="Ldot" unicode="&#x13f;" horiz-adv-x="557" 
d="M522 186c15 0 22 -8 22 -23c0 -9 -3 -24 -9 -44c-3 -10 -7 -25 -11 -44s-8 -34 -11 -44c-5 -19 -21 -39 -48 -39c-9 0 -29 1 -62 4s-67 4 -103 4h-218c-19 0 -28 5 -28 16c0 5 6 11 17 18c13 8 22 17 29 26c9 13 13 47 13 101v403c0 40 -2 67 -5 80s-9 23 -19 30
c-11 8 -34 14 -30 25c1 10 9 15 25 15h135c17 0 26 -5 26 -15c4 -11 -19 -17 -30 -25c-11 -7 -18 -17 -21 -30s-4 -40 -4 -80v-438c0 -43 5 -67 14 -74c11 -8 34 -12 67 -12c19 0 40 1 64 4c41 5 70 15 88 30s40 43 66 85c12 18 23 27 33 27zM351 337c-5 5 -8 16 -8 34
c0 35 7 42 42 42c16 0 27 -3 34 -8c5 -7 8 -18 8 -35s-3 -28 -8 -33c-7 -5 -18 -8 -35 -8s-28 3 -33 8z" />
    <glyph glyph-name="ldot" unicode="&#x140;" horiz-adv-x="323" 
d="M238 34c10 -6 15 -12 15 -17c0 -11 -8 -17 -23 -17h-149c-15 0 -23 6 -23 17c0 6 5 12 15 17c15 8 24 16 29 24c10 15 15 50 15 107v442c0 29 -3 47 -10 55c-6 7 -16 13 -31 16c-15 4 -23 10 -23 18c0 11 4 16 27 21c29 7 55 15 79 25c8 3 14 5 17 5c12 0 18 -8 18 -24
v-558c0 -56 5 -92 15 -107c5 -9 15 -17 29 -24zM271 321c-5 5 -8 16 -8 34c0 35 7 42 42 42c16 0 27 -3 34 -8c5 -7 8 -18 8 -35s-3 -28 -8 -33c-7 -5 -18 -8 -35 -8s-28 3 -33 8z" />
    <glyph glyph-name="Lslash" unicode="&#x141;" horiz-adv-x="565" 
d="M530 187c15 0 22 -8 22 -24c0 -8 -2 -19 -6 -33c-4 -13 -8 -30 -13 -51c-4 -21 -8 -36 -11 -46c-5 -20 -23 -41 -51 -41c-3 0 -22 1 -56 4s-69 4 -106 4h-218c-19 0 -29 6 -29 17c0 6 6 12 18 18s21 15 28 26c9 15 14 48 14 101v149l-50 -27c-3 -1 -5 -2 -6 -2
c-3 0 -5 2 -5 5v29c0 5 2 8 7 11l54 29v208c0 39 -2 66 -5 79c-3 14 -9 24 -19 31c-15 12 -30 10 -30 25c0 10 8 15 24 15h135c17 0 26 -5 26 -15c5 -11 -18 -17 -30 -25c-11 -7 -18 -17 -21 -30s-4 -40 -4 -80v-166l103 56c3 1 5 2 6 2c3 0 5 -2 5 -5v-29
c0 -5 -2 -9 -7 -11l-107 -59v-225c0 -43 5 -67 14 -74c12 -9 36 -13 71 -13c17 0 37 1 60 4c29 4 52 10 69 19c35 17 50 38 85 97c11 18 22 27 33 27z" />
    <glyph glyph-name="lslash" unicode="&#x142;" horiz-adv-x="314" 
d="M194 725v-306l74 40c4 2 6 3 7 3c3 0 4 -2 4 -5v-29c0 -5 -2 -9 -7 -12l-78 -42v-210c0 -57 5 -93 15 -107c5 -7 15 -15 30 -23c9 -5 13 -11 13 -18c0 -11 -7 -16 -21 -16h-149c-15 0 -23 5 -23 16c0 7 5 13 15 18c15 9 25 16 30 23c10 15 15 51 15 107v170l-73 -41
c-4 -2 -6 -3 -7 -3c-3 0 -4 2 -4 6v29c0 5 2 8 7 11l77 43v228c0 29 -4 48 -11 57c-5 7 -16 12 -31 16s-22 10 -22 18c0 10 8 17 25 21c34 8 60 16 79 25c8 3 14 5 17 5c12 0 18 -8 18 -24z" />
    <glyph glyph-name="Nacute" unicode="&#x143;" horiz-adv-x="770" 
d="M553 714h147c19 0 28 -5 28 -16c0 -13 -15 -17 -26 -22c-29 -12 -46 -36 -51 -121c-2 -30 -3 -166 -3 -408v-143c0 -8 -4 -12 -13 -12h-20c-4 0 -9 3 -14 10l-421 583c-1 2 -3 3 -4 3c-3 0 -4 -2 -4 -5c0 -245 1 -385 3 -419c5 -80 26 -112 71 -128c12 -5 18 -11 18 -19
c0 -11 -8 -17 -25 -17h-167c-18 0 -27 6 -27 17c0 15 16 13 24 21c33 14 52 56 55 126c3 61 5 220 5 475c0 5 -2 10 -6 14c-9 9 -19 15 -32 20c-20 8 -40 6 -40 23c0 12 9 18 28 18h83c13 0 23 -4 28 -12l405 -562c2 -3 4 -5 6 -5c3 0 4 1 4 4c0 236 -1 375 -3 416
c-4 80 -20 109 -53 121c-1 0 -2 0 -4 1c-14 6 -21 12 -22 19c0 12 10 18 30 18zM529 900l-157 -99c-8 -6 -18 -9 -31 -9h-45c-4 0 -6 2 -6 5c0 2 2 4 6 7l118 96c10 9 22 13 37 13h72c7 0 10 -2 10 -6c0 -3 -1 -5 -4 -7z" />
    <glyph glyph-name="nacute" unicode="&#x144;" horiz-adv-x="618" 
d="M565 35c11 -5 16 -11 16 -18c0 -11 -8 -17 -25 -17h-148c-16 0 -24 6 -24 17c0 7 5 13 15 18c14 6 24 14 29 23c11 18 16 54 16 107v170c0 87 -40 134 -116 134c-37 0 -67 -12 -91 -36c-20 -20 -33 -48 -39 -83s-9 -97 -9 -185c0 -53 5 -89 16 -107c5 -8 14 -16 29 -23
c10 -5 15 -11 15 -18c0 -11 -8 -17 -24 -17h-147c-16 0 -24 6 -24 17c0 7 5 13 15 18c15 7 25 14 30 23c11 18 16 54 16 107v196c0 49 -4 78 -12 88c-5 6 -15 11 -32 16c-14 4 -21 10 -21 18c0 10 8 17 25 21c27 6 53 14 77 25c6 3 12 4 17 4c13 0 20 -8 20 -23v-65
c0 -7 3 -7 7 0c39 59 93 88 162 88c51 0 91 -17 121 -50c28 -31 42 -79 42 -146v-172c0 -55 5 -90 15 -107c5 -9 15 -17 29 -23zM444 713l-157 -99c-8 -6 -18 -9 -31 -9h-45c-4 0 -6 2 -6 5c0 1 2 4 6 7l118 96c10 9 22 13 37 13h72c7 0 10 -2 10 -6c0 -3 -1 -5 -4 -7z" />
    <glyph glyph-name="Ncommaaccent" unicode="&#x145;" horiz-adv-x="770" 
d="M553 714h147c19 0 28 -5 28 -16c0 -13 -15 -17 -26 -22c-29 -12 -46 -36 -51 -121c-2 -30 -3 -166 -3 -408v-143c0 -8 -4 -12 -13 -12h-20c-4 0 -9 3 -14 10l-421 583c-1 2 -3 3 -4 3c-3 0 -4 -2 -4 -5c0 -245 1 -385 3 -419c5 -80 26 -112 71 -128c12 -5 18 -11 18 -19
c0 -11 -8 -17 -25 -17h-167c-18 0 -27 6 -27 17c0 15 16 13 24 21c33 14 52 56 55 126c3 61 5 220 5 475c0 5 -2 10 -6 14c-9 9 -19 15 -32 20c-20 8 -40 6 -40 23c0 12 9 18 28 18h83c13 0 23 -4 28 -12l405 -562c2 -3 4 -5 6 -5c3 0 4 1 4 4c0 236 -1 375 -3 416
c-4 80 -20 109 -53 121c-1 0 -2 0 -4 1c-14 6 -21 12 -22 19c0 12 10 18 30 18zM427 -32c17 -18 26 -41 26 -68c0 -31 -10 -61 -31 -91c-23 -33 -43 -49 -61 -49c-4 0 -8 2 -11 5c-5 5 -8 9 7 21c12 9 22 21 31 34c7 13 11 24 11 35c0 16 -7 24 -31 47c-16 13 -24 26 -24 37
c0 8 6 18 19 31c13 12 23 18 30 18c11 0 22 -7 34 -20z" />
    <glyph glyph-name="ncommaaccent" unicode="&#x146;" horiz-adv-x="618" 
d="M565 35c11 -5 16 -11 16 -18c0 -11 -8 -17 -25 -17h-148c-16 0 -24 6 -24 17c0 7 5 13 15 18c14 6 24 14 29 23c11 18 16 54 16 107v170c0 87 -40 134 -116 134c-37 0 -67 -12 -91 -36c-20 -20 -33 -48 -39 -83s-9 -97 -9 -185c0 -53 5 -89 16 -107c5 -8 14 -16 29 -23
c10 -5 15 -11 15 -18c0 -11 -8 -17 -24 -17h-147c-16 0 -24 6 -24 17c0 7 5 13 15 18c15 7 25 14 30 23c11 18 16 54 16 107v196c0 49 -4 78 -12 88c-5 6 -15 11 -32 16c-14 4 -21 10 -21 18c0 10 8 17 25 21c27 6 53 14 77 25c6 3 12 4 17 4c13 0 20 -8 20 -23v-65
c0 -7 3 -7 7 0c39 59 93 88 162 88c51 0 91 -17 121 -50c28 -31 42 -79 42 -146v-172c0 -55 5 -90 15 -107c5 -9 15 -17 29 -23zM351 -32c17 -18 26 -41 26 -68c0 -31 -10 -61 -31 -91c-23 -33 -43 -49 -61 -49c-4 0 -8 2 -11 5c-5 5 -8 9 7 21c12 9 22 21 31 34
c7 13 11 24 11 35c0 16 -7 24 -31 47c-16 13 -24 26 -24 37c0 8 6 18 19 31c13 12 23 18 30 18c11 0 22 -7 34 -20z" />
    <glyph glyph-name="Ncaron" unicode="&#x147;" horiz-adv-x="770" 
d="M553 714h147c19 0 28 -5 28 -16c0 -13 -15 -17 -26 -22c-29 -12 -46 -36 -51 -121c-2 -30 -3 -166 -3 -408v-143c0 -8 -4 -12 -13 -12h-20c-4 0 -9 3 -14 10l-421 583c-1 2 -3 3 -4 3c-3 0 -4 -2 -4 -5c0 -245 1 -385 3 -419c5 -80 26 -112 71 -128c12 -5 18 -11 18 -19
c0 -11 -8 -17 -25 -17h-167c-18 0 -27 6 -27 17c0 15 16 13 24 21c33 14 52 56 55 126c3 61 5 220 5 475c0 5 -2 10 -6 14c-9 9 -19 15 -32 20c-20 8 -40 6 -40 23c0 12 9 18 28 18h83c13 0 23 -4 28 -12l405 -562c2 -3 4 -5 6 -5c3 0 4 1 4 4c0 236 -1 375 -3 416
c-4 80 -20 109 -53 121c-1 0 -2 0 -4 1c-14 6 -21 12 -22 19c0 12 10 18 30 18zM477 913h36c3 0 5 -1 5 -3c0 -1 -1 -3 -3 -6l-89 -110c-4 -5 -9 -7 -16 -7h-49c-7 0 -13 2 -17 7l-89 110c-2 2 -3 4 -3 5c0 3 2 4 5 4h38c4 0 8 -2 13 -7l74 -78c3 -3 5 -3 9 1l73 78
c4 4 8 6 13 6z" />
    <glyph glyph-name="ncaron" unicode="&#x148;" horiz-adv-x="618" 
d="M565 35c11 -5 16 -11 16 -18c0 -11 -8 -17 -25 -17h-148c-16 0 -24 6 -24 17c0 7 5 13 15 18c14 6 24 14 29 23c11 18 16 54 16 107v170c0 87 -40 134 -116 134c-37 0 -67 -12 -91 -36c-20 -20 -33 -48 -39 -83s-9 -97 -9 -185c0 -53 5 -89 16 -107c5 -8 14 -16 29 -23
c10 -5 15 -11 15 -18c0 -11 -8 -17 -24 -17h-147c-16 0 -24 6 -24 17c0 7 5 13 15 18c15 7 25 14 30 23c11 18 16 54 16 107v196c0 49 -4 78 -12 88c-5 6 -15 11 -32 16c-14 4 -21 10 -21 18c0 10 8 17 25 21c27 6 53 14 77 25c6 3 12 4 17 4c13 0 20 -8 20 -23v-65
c0 -7 3 -7 7 0c39 59 93 88 162 88c51 0 91 -17 121 -50c28 -31 42 -79 42 -146v-172c0 -55 5 -90 15 -107c5 -9 15 -17 29 -23zM410 726h36c3 0 5 -1 5 -3c0 -1 -1 -3 -3 -6l-89 -110c-4 -5 -9 -7 -16 -7h-49c-7 0 -13 2 -17 7l-89 110c-2 2 -3 4 -3 5c0 3 2 4 5 4h38
c4 0 8 -2 13 -7l74 -78c3 -3 5 -3 9 1l73 78c4 4 8 6 13 6z" />
    <glyph glyph-name="napostrophe" unicode="&#x149;" horiz-adv-x="676" 
d="M623 35c11 -5 16 -11 16 -18c0 -11 -8 -17 -25 -17h-148c-16 0 -24 6 -24 17c0 7 5 13 15 18c14 6 24 14 29 23c11 18 16 54 16 107v170c0 87 -40 134 -116 134c-37 0 -67 -12 -91 -36c-20 -20 -33 -48 -39 -83s-9 -97 -9 -185c0 -53 5 -89 16 -107c5 -8 14 -16 29 -23
c10 -5 15 -11 15 -18c0 -11 -8 -17 -24 -17h-147c-16 0 -24 6 -24 17c0 7 5 13 15 18c15 7 25 14 30 23c11 18 16 54 16 107v196c0 49 -4 78 -12 88c-5 6 -15 11 -32 16c-14 4 -21 10 -21 18c0 10 8 17 25 21c27 6 53 14 77 25c6 3 12 4 17 4c13 0 20 -8 20 -23v-65
c0 -7 3 -7 7 0c39 59 93 88 162 88c51 0 91 -17 121 -50c28 -31 42 -79 42 -146v-172c0 -55 5 -90 15 -107c5 -9 15 -17 29 -23zM71 706c17 -18 26 -41 26 -68c0 -31 -10 -61 -31 -91c-23 -33 -43 -49 -61 -49c-4 0 -8 2 -11 5c-5 5 -8 9 7 21c12 9 22 21 31 34
c7 13 11 24 11 35c0 16 -7 24 -31 47c-16 13 -24 26 -24 37c0 8 6 18 19 30c13 13 23 19 30 19c11 0 22 -7 34 -20z" />
    <glyph glyph-name="Eng" unicode="&#x14a;" horiz-adv-x="771" 
d="M553 714h147c19 0 28 -5 29 -16c0 -13 -15 -17 -26 -22c-15 -7 -27 -18 -35 -34c-8 -15 -13 -44 -16 -87c-2 -26 -3 -121 -3 -285v-149c0 -73 -3 -123 -9 -151c-11 -51 -34 -91 -70 -119s-77 -42 -122 -42c-27 0 -46 5 -59 15c-17 15 -25 37 -25 67c0 21 8 31 24 31
c7 0 16 -5 26 -15c29 -31 56 -47 79 -47c31 0 54 17 70 50c9 19 14 56 14 109c0 10 -2 18 -7 25l-387 538c-3 3 -5 5 -7 5c-3 0 -4 -2 -4 -6c0 -230 1 -369 4 -417c4 -80 26 -112 71 -128c12 -5 18 -11 18 -19c0 -11 -8 -17 -25 -17h-167c-18 0 -27 6 -27 17
c0 16 14 12 23 21c34 16 53 58 56 126c3 73 4 232 4 475c0 3 -2 7 -5 14c-7 7 -16 13 -28 18c-11 5 -51 11 -45 25c0 12 10 18 29 18h82c13 0 23 -4 29 -13l405 -561c3 -3 5 -5 6 -5c3 0 4 1 4 4c0 236 -1 375 -3 416c-4 79 -19 108 -54 121c-13 7 -25 5 -25 20
c0 12 10 18 29 18z" />
    <glyph glyph-name="eng" unicode="&#x14b;" horiz-adv-x="606" 
d="M519 337v-172c0 -106 -4 -174 -12 -205c-12 -47 -36 -84 -73 -111s-77 -40 -120 -40c-27 0 -46 5 -59 15c-16 15 -24 37 -24 66c0 21 7 32 22 32c9 0 18 -5 27 -15c28 -31 54 -47 79 -47c28 0 50 15 65 45c14 29 21 82 21 159v271c0 85 -41 134 -116 134
c-37 0 -67 -12 -91 -36c-20 -20 -33 -48 -39 -83s-9 -97 -9 -185c0 -55 5 -90 15 -107c4 -7 14 -14 30 -23c10 -5 15 -11 15 -18c0 -11 -8 -17 -24 -17h-147c-16 0 -24 6 -24 17c0 7 5 13 16 18c15 7 24 15 29 23c10 17 15 52 15 107v215c0 36 -4 58 -11 67
c-5 6 -15 12 -32 17c-14 4 -21 10 -21 19c0 10 8 17 25 21c29 7 54 15 75 24c7 3 14 5 19 5c13 0 20 -8 20 -25v-63c0 -3 1 -5 3 -5c1 0 2 1 4 4c40 59 94 89 162 89c55 0 98 -19 128 -58c21 -29 32 -75 32 -138z" />
    <glyph glyph-name="Omacron" unicode="&#x14c;" horiz-adv-x="806" 
d="M399 687c-75 0 -138 -29 -189 -86s-76 -132 -76 -225c0 -96 25 -178 75 -245c51 -67 117 -101 198 -101c80 0 144 30 193 89c49 60 73 134 73 223c0 61 -11 117 -33 168c-43 104 -132 177 -241 177zM757 361c0 -103 -34 -190 -101 -263s-151 -109 -252 -109
c-119 0 -212 39 -277 117c-52 63 -78 145 -78 244c0 101 34 189 101 264c68 75 153 112 254 112c112 0 200 -36 264 -107c59 -65 89 -151 89 -258zM540 870v-33c0 -5 -3 -8 -9 -8h-261c-5 0 -8 3 -8 8v33c0 5 3 8 8 8h261c6 0 9 -3 9 -8z" />
    <glyph glyph-name="omacron" unicode="&#x14d;" horiz-adv-x="590" 
d="M462 234c0 52 -9 100 -28 144c-19 45 -45 77 -80 96c-23 13 -46 19 -68 19c-27 0 -53 -7 -77 -22c-53 -35 -80 -94 -80 -177c0 -71 16 -133 49 -185s75 -78 128 -78c49 0 88 21 117 62c26 37 39 84 39 141zM296 533c77 0 138 -25 181 -76s65 -115 65 -193
c0 -77 -23 -142 -70 -195c-46 -53 -105 -80 -176 -80c-75 0 -136 24 -181 73s-67 114 -67 196c0 77 23 142 70 195s106 80 178 80zM431 706v-33c0 -5 -3 -8 -9 -8h-261c-5 0 -8 3 -8 8v33c0 5 3 8 8 8h261c6 0 9 -3 9 -8z" />
    <glyph glyph-name="Obreve" unicode="&#x14e;" horiz-adv-x="806" 
d="M399 687c-75 0 -138 -29 -189 -86s-76 -132 -76 -225c0 -96 25 -178 75 -245c51 -67 117 -101 198 -101c80 0 144 30 193 89c49 60 73 134 73 223c0 61 -11 117 -33 168c-43 104 -132 177 -241 177zM757 361c0 -103 -34 -190 -101 -263s-151 -109 -252 -109
c-119 0 -212 39 -277 117c-52 63 -78 145 -78 244c0 101 34 189 101 264c68 75 153 112 254 112c112 0 200 -36 264 -107c59 -65 89 -151 89 -258zM288 892c0 13 5 20 16 20c8 0 13 -5 16 -15c13 -44 41 -66 85 -66c45 0 73 22 86 66c3 10 9 15 16 15c11 0 16 -7 16 -20
c0 -61 -51 -106 -118 -106s-117 45 -117 106z" />
    <glyph glyph-name="obreve" unicode="&#x14f;" horiz-adv-x="590" 
d="M462 234c0 52 -9 100 -28 144c-19 45 -45 77 -80 96c-23 13 -46 19 -68 19c-27 0 -53 -7 -77 -22c-53 -35 -80 -94 -80 -177c0 -71 16 -133 49 -185s75 -78 128 -78c49 0 88 21 117 62c26 37 39 84 39 141zM296 533c77 0 138 -25 181 -76s65 -115 65 -193
c0 -77 -23 -142 -70 -195c-46 -53 -105 -80 -176 -80c-75 0 -136 24 -181 73s-67 114 -67 196c0 77 23 142 70 195s106 80 178 80zM178 707c0 13 5 20 16 20c8 0 13 -5 16 -15c13 -44 41 -66 85 -66c45 0 73 22 86 66c3 10 9 15 16 15c11 0 16 -7 16 -20
c0 -61 -51 -106 -118 -106s-117 45 -117 106z" />
    <glyph glyph-name="Ohungarumlaut" unicode="&#x150;" horiz-adv-x="806" 
d="M399 687c-75 0 -138 -29 -189 -86s-76 -132 -76 -225c0 -96 25 -178 75 -245c51 -67 117 -101 198 -101c80 0 144 30 193 89c49 60 73 134 73 223c0 61 -11 117 -33 168c-43 104 -132 177 -241 177zM757 361c0 -103 -34 -190 -101 -263s-151 -109 -252 -109
c-119 0 -212 39 -277 117c-52 63 -78 145 -78 244c0 101 34 189 101 264c68 75 153 112 254 112c112 0 200 -36 264 -107c59 -65 89 -151 89 -258zM426 807c0 5 6 15 17 29c28 35 52 58 72 68c11 6 28 9 50 9c26 0 39 -5 39 -16c0 -9 -20 -28 -59 -57
c-25 -18 -46 -31 -61 -38c-13 -6 -24 -9 -35 -9c-15 0 -23 5 -23 14zM250 807c0 5 6 15 17 29c28 35 52 58 72 68c11 6 28 9 50 9c26 0 39 -5 39 -16c0 -9 -20 -28 -59 -57c-25 -18 -46 -31 -61 -38c-13 -6 -24 -9 -35 -9c-15 0 -23 5 -23 14z" />
    <glyph glyph-name="ohungarumlaut" unicode="&#x151;" horiz-adv-x="590" 
d="M462 234c0 52 -9 100 -28 144c-19 45 -45 77 -80 96c-23 13 -46 19 -68 19c-27 0 -53 -7 -77 -22c-53 -35 -80 -94 -80 -177c0 -71 16 -133 49 -185s75 -78 128 -78c49 0 88 21 117 62c26 37 39 84 39 141zM296 533c77 0 138 -25 181 -76s65 -115 65 -193
c0 -77 -23 -142 -70 -195c-46 -53 -105 -80 -176 -80c-75 0 -136 24 -181 73s-67 114 -67 196c0 77 23 142 70 195s106 80 178 80zM312 620c0 5 6 15 17 29c28 35 52 58 72 68c11 6 28 9 50 9c26 0 39 -5 39 -16c0 -9 -20 -28 -59 -57c-25 -18 -46 -31 -61 -38
c-13 -6 -24 -9 -35 -9c-15 0 -23 5 -23 14zM136 620c0 5 6 15 17 29c28 35 52 58 72 68c11 6 28 9 50 9c26 0 39 -5 39 -16c0 -9 -20 -28 -59 -57c-25 -18 -46 -31 -61 -38c-13 -6 -24 -9 -35 -9c-15 0 -23 5 -23 14z" />
    <glyph glyph-name="OE" unicode="&#x152;" horiz-adv-x="1053" 
d="M134 362c0 -133 54 -238 139 -294c41 -27 90 -40 149 -40c49 0 83 8 104 25c17 15 20 36 20 109v402c0 63 -3 80 -27 99c-23 16 -58 24 -105 24c-83 0 -150 -31 -202 -92s-78 -138 -78 -233zM984 186c15 0 22 -8 22 -23c0 -7 -3 -23 -10 -46c-5 -19 -11 -52 -15 -71
c-7 -30 -21 -54 -56 -54c-3 0 -21 1 -55 4c-33 3 -69 4 -106 4h-234c-9 0 -26 -2 -51 -5c-25 -4 -46 -6 -64 -6c-78 0 -145 17 -202 52c-113 69 -164 181 -164 312c0 62 13 121 40 177s68 103 123 140s117 56 188 56c24 0 50 -2 79 -6s47 -6 54 -6h240c38 0 74 1 109 4
s53 4 56 4c22 0 34 -9 36 -27c1 -14 2 -34 2 -61c0 -12 2 -45 2 -62c0 -22 -7 -33 -20 -33s-23 8 -28 24c-3 13 -10 30 -15 40c-6 19 -18 32 -37 46c-23 16 -79 24 -168 24h-69c-12 0 -18 -6 -18 -18v-237c0 -16 4 -20 20 -20c41 0 74 1 99 2l55 4c27 2 46 3 57 3
c25 0 37 -6 37 -18c0 -1 -1 -6 -3 -14c-5 -25 -13 -30 -48 -30c-9 0 -26 1 -51 2c-25 2 -42 3 -53 3c-45 1 -79 2 -101 2c-8 0 -12 -4 -12 -13v-213c0 -49 2 -65 14 -74c11 -8 40 -12 87 -12c26 0 50 1 73 4c29 3 52 10 69 19c18 9 32 20 43 33s25 34 43 63
c11 18 21 27 32 27z" />
    <glyph glyph-name="oe" unicode="&#x153;" horiz-adv-x="956" 
d="M838 280h-285c-7 0 -10 -3 -10 -10v-5c0 -61 15 -113 46 -156s74 -65 129 -65c45 0 84 15 118 45c23 20 33 39 49 39c9 0 18 -8 18 -19c0 -24 -24 -51 -71 -82c-39 -25 -84 -38 -133 -38c-81 0 -157 38 -200 113c-49 -75 -116 -113 -203 -113c-75 0 -135 24 -180 73
s-68 115 -68 196c0 77 23 142 70 195s106 80 178 80c97 0 168 -40 212 -119c40 68 117 119 206 119c56 0 103 -18 141 -54c39 -35 58 -78 58 -127c0 -51 -19 -72 -75 -72zM548 329c0 -6 3 -9 8 -9h189c57 0 85 18 85 63c0 27 -11 52 -34 75c-22 23 -52 35 -91 35
c-52 0 -94 -25 -126 -76c-19 -31 -31 -75 -31 -88zM305 31c49 0 87 19 115 57c29 39 43 87 43 146c0 71 -16 132 -49 183s-75 76 -128 76c-45 0 -83 -18 -113 -55c-29 -37 -44 -86 -44 -147c0 -69 16 -130 49 -182s76 -78 127 -78z" />
    <glyph glyph-name="Racute" unicode="&#x154;" horiz-adv-x="667" 
d="M206 387h68c112 0 194 46 194 151c0 49 -18 86 -41 103c-11 9 -27 16 -46 21c-37 11 -59 11 -103 11h-66c-15 0 -23 -6 -23 -18v-254c0 -9 6 -14 17 -14zM622 36c7 -7 19 -7 19 -20c0 -11 -7 -16 -21 -16h-57c-25 0 -36 10 -51 37c-5 9 -12 23 -20 42l-27 69
c-11 27 -19 48 -24 62c-33 80 -68 122 -129 133c-18 3 -40 5 -65 5c-23 0 -38 -1 -46 -2s-12 -5 -12 -12v-170c0 -53 5 -89 15 -106c5 -9 15 -17 30 -23c10 -5 15 -12 15 -19c0 -11 -8 -16 -24 -16h-148c-15 0 -23 5 -23 16c0 7 5 14 15 19c15 6 24 14 29 23
c10 15 15 51 15 106v400c0 41 -1 68 -4 80c-3 13 -10 23 -23 30c-11 5 -27 9 -27 23c0 11 8 17 24 17h106h63c28 1 48 1 61 1c90 0 153 -16 190 -49c33 -31 50 -70 50 -117c0 -97 -70 -161 -163 -176c-5 -1 -8 -3 -8 -6s3 -4 8 -5c32 -5 57 -19 75 -41
c19 -21 40 -60 63 -115c27 -66 46 -109 57 -130s24 -34 37 -40zM451 900l-157 -99c-8 -6 -18 -9 -31 -9h-45c-4 0 -6 2 -6 5c0 2 2 4 6 7l118 96c10 9 22 13 37 13h72c7 0 10 -2 10 -6c0 -3 -1 -5 -4 -7z" />
    <glyph glyph-name="racute" unicode="&#x155;" horiz-adv-x="390" 
d="M326 533c40 0 57 -27 57 -58c0 -27 -9 -40 -28 -40c-16 0 -41 21 -62 21c-26 0 -48 -15 -67 -45c-13 -23 -22 -51 -27 -84c-4 -33 -6 -87 -6 -163c0 -53 5 -89 15 -106c4 -7 14 -14 29 -23c10 -5 15 -11 15 -19c0 -11 -8 -16 -23 -16h-148c-15 0 -23 5 -23 16
c0 7 5 14 15 19c15 7 26 16 31 27c9 17 14 51 14 102c0 62 -1 199 -1 198c0 47 -5 75 -14 85c-5 6 -16 12 -31 17s-22 11 -22 19c0 12 5 17 25 22c22 5 44 12 66 21c9 4 16 6 23 6c13 0 20 -8 20 -24v-81c0 -2 1 -3 2 -3s2 1 3 4c12 24 31 47 56 70c26 23 53 35 81 35z
M330 713l-157 -99c-8 -6 -18 -9 -31 -9h-45c-4 0 -6 2 -6 5c0 1 2 4 6 7l118 96c10 9 22 13 37 13h72c7 0 10 -2 10 -6c0 -3 -1 -5 -4 -7z" />
    <glyph glyph-name="Rcommaaccent" unicode="&#x156;" horiz-adv-x="667" 
d="M206 387h68c112 0 194 46 194 151c0 49 -18 86 -41 103c-11 9 -27 16 -46 21c-37 11 -59 11 -103 11h-66c-15 0 -23 -6 -23 -18v-254c0 -9 6 -14 17 -14zM622 36c7 -7 19 -7 19 -20c0 -11 -7 -16 -21 -16h-57c-25 0 -36 10 -51 37c-5 9 -12 23 -20 42l-27 69
c-11 27 -19 48 -24 62c-33 80 -68 122 -129 133c-18 3 -40 5 -65 5c-23 0 -38 -1 -46 -2s-12 -5 -12 -12v-170c0 -53 5 -89 15 -106c5 -9 15 -17 30 -23c10 -5 15 -12 15 -19c0 -11 -8 -16 -24 -16h-148c-15 0 -23 5 -23 16c0 7 5 14 15 19c15 6 24 14 29 23
c10 15 15 51 15 106v400c0 41 -1 68 -4 80c-3 13 -10 23 -23 30c-11 5 -27 9 -27 23c0 11 8 17 24 17h106h63c28 1 48 1 61 1c90 0 153 -16 190 -49c33 -31 50 -70 50 -117c0 -97 -70 -161 -163 -176c-5 -1 -8 -3 -8 -6s3 -4 8 -5c32 -5 57 -19 75 -41
c19 -21 40 -60 63 -115c27 -66 46 -109 57 -130s24 -34 37 -40zM386 -32c17 -18 26 -41 26 -68c0 -31 -10 -61 -31 -91c-23 -33 -43 -49 -61 -49c-4 0 -8 2 -11 5c-5 5 -8 9 7 21c12 9 22 21 31 34c7 13 11 24 11 35c0 16 -7 24 -31 47c-16 13 -24 26 -24 37c0 8 6 18 19 31
c13 12 23 18 30 18c11 0 22 -7 34 -20z" />
    <glyph glyph-name="rcommaaccent" unicode="&#x157;" horiz-adv-x="390" 
d="M326 533c40 0 57 -27 57 -58c0 -27 -9 -40 -28 -40c-16 0 -41 21 -62 21c-26 0 -48 -15 -67 -45c-13 -23 -22 -51 -27 -84c-4 -33 -6 -87 -6 -163c0 -53 5 -89 15 -106c4 -7 14 -14 29 -23c10 -5 15 -11 15 -19c0 -11 -8 -16 -23 -16h-148c-15 0 -23 5 -23 16
c0 7 5 14 15 19c15 7 26 16 31 27c9 17 14 51 14 102c0 62 -1 199 -1 198c0 47 -5 75 -14 85c-5 6 -16 12 -31 17s-22 11 -22 19c0 12 5 17 25 22c22 5 44 12 66 21c9 4 16 6 23 6c13 0 20 -8 20 -24v-81c0 -2 1 -3 2 -3s2 1 3 4c12 24 31 47 56 70c26 23 53 35 81 35z
M187 -32c17 -18 26 -41 26 -68c0 -31 -10 -61 -31 -91c-23 -33 -43 -49 -61 -49c-4 0 -8 2 -11 5c-5 5 -8 9 7 21c12 9 22 21 31 34c7 13 11 24 11 35c0 16 -7 24 -31 47c-16 13 -24 26 -24 37c0 8 6 18 19 31c13 12 23 18 30 18c11 0 22 -7 34 -20z" />
    </font>
</defs>
</svg>
